<?xml version="1.0" standalone="no"?>
<!DOCTYPE svg PUBLIC "-//W3C//DTD SVG 1.1//EN" "http://www.w3.org/Graphics/SVG/1.1/DTD/svg11.dtd" >
<svg xmlns="http://www.w3.org/2000/svg">
<metadata></metadata>
<defs>
<font id="futura_condensedbold" horiz-adv-x="1003" >
<font-face units-per-em="2048" ascent="1638" descent="-410" />
<missing-glyph horiz-adv-x="501" />
<glyph horiz-adv-x="0" />
<glyph horiz-adv-x="682" />
<glyph unicode=" "  horiz-adv-x="501" />
<glyph unicode="&#x09;" horiz-adv-x="501" />
<glyph unicode="&#xa0;" horiz-adv-x="501" />
<glyph unicode="!" horiz-adv-x="503" d="M57 170q0 80 57.5 137.5t137.5 57.5q79 0 136.5 -57.5t57.5 -137.5t-57.5 -137.5t-136.5 -57.5q-80 0 -137.5 57.5t-57.5 137.5zM102 463v1081h301v-1081h-301z" />
<glyph unicode="&#x22;" horiz-adv-x="737" d="M39 1544h285l-31 -596h-223zM414 1544h284l-30 -596h-224z" />
<glyph unicode="#" d="M53 487v205h201l22 193h-172v205h195l55 454h170l-53 -454h154l53 454h172l-55 -454h155v-205h-180l-22 -193h153v-205h-176l-59 -487h-170l57 487h-152l-59 -487h-172l57 487h-174zM426 692h149l25 193h-151z" />
<glyph unicode="$" d="M39 1120q0 182 103.5 294t285.5 142v146h150v-146q215 -32 329 -180l-168 -184q-104 119 -235 119q-80 0 -127 -41t-47 -121q0 -37 12.5 -66t37.5 -50.5t49.5 -35t62.5 -28.5q50 -20 80.5 -33t76.5 -34.5t74.5 -39t65.5 -43.5t60 -51t48 -59t38.5 -70t22.5 -81t9 -95 q0 -183 -106 -319t-283 -169v-176h-150v176q-244 33 -385 181l143 227q41 -40 68 -62.5t66.5 -49t81 -38.5t87.5 -12q81 0 134 57t53 144q0 36 -11.5 66t-27 49.5t-44.5 40t-49 31t-57 28.5q-176 80 -245 126q-160 105 -193 259q-10 46 -10 98z" />
<glyph unicode="%" horiz-adv-x="1757" d="M78 1114q0 68 8.5 128.5t31 120t57.5 101.5t92.5 68.5t131.5 26.5q92 0 157.5 -38.5t100 -105.5t49.5 -140.5t15 -160.5t-15 -160.5t-49.5 -140t-100 -105t-157.5 -38.5t-157.5 38.5t-99.5 105t-49 140t-15 160.5zM324 1114q0 -26 2 -52.5t8.5 -67.5t23 -66t41.5 -25 t42 25t23.5 65t8.5 67.5t2 53.5t-2 53.5t-8.5 67.5t-23.5 65t-42 25q-75 0 -75 -211zM403 0l732 1544h219l-731 -1544h-220zM1034 430q0 87 15 160.5t49.5 140t100 105t157.5 38.5t157.5 -38.5t99.5 -105t49 -140t15 -160.5t-15 -160.5t-49 -140t-99.5 -105t-157.5 -38.5 t-157.5 38.5t-100 105t-49.5 140t-15 160.5zM1280 430q0 -26 2 -53t8.5 -67t23.5 -65.5t42 -25.5t42 25t23.5 65t8.5 67.5t2 53.5t-2 53.5t-8.5 67.5t-23.5 65t-42 25q-76 0 -76 -211z" />
<glyph unicode="&#x26;" horiz-adv-x="1208" d="M53 436q0 239 223 408q-108 189 -108 319q0 152 103 245t257 93q145 0 250 -82.5t105 -224.5q0 -120 -68 -221.5t-180 -196.5l205 -317q15 16 49 51t59 62.5t45 54.5l162 -219q-64 -78 -158 -152l-12 -10l162 -246h-324l-59 90q-58 -50 -133.5 -80t-149.5 -30 q-122 0 -221.5 63.5t-153 167.5t-53.5 225zM350 457q0 -84 48.5 -142.5t121.5 -58.5q58 0 107 43l-203 309q-32 -25 -53 -68t-21 -83zM432 1174q0 -17 3.5 -33t12 -34t14 -28.5t19 -32t17.5 -28.5q48 26 77 69t29 95q0 35 -21 59.5t-57 24.5q-40 0 -67 -25.5t-27 -66.5z" />
<glyph unicode="'" horiz-adv-x="512" d="M115 1544h284l-30 -596h-224z" />
<glyph unicode="(" horiz-adv-x="614" d="M86 637q0 239 58 482.5t169 449.5l265 -58q-205 -425 -205 -880q0 -421 205 -850l-265 -60q-227 437 -227 916z" />
<glyph unicode=")" horiz-adv-x="614" d="M37 -221q205 425 205 880q0 421 -205 850l264 60q227 -437 227 -916q0 -239 -58 -482.5t-169 -449.5z" />
<glyph unicode="*" horiz-adv-x="770" d="M47 1075l213 121l-213 119l66 115l211 -130v244h131v-244l202 130l66 -115l-215 -119l215 -121l-66 -117l-202 134v-252h-131v252l-211 -134z" />
<glyph unicode="+" d="M43 412v225h346v385h225v-385h349v-225h-349v-398h-225v398h-346z" />
<glyph unicode="," horiz-adv-x="501" d="M-68 -295l205 627h309l-309 -627h-205z" />
<glyph unicode="-" horiz-adv-x="651" d="M70 541v272h512v-272h-512z" />
<glyph unicode="." horiz-adv-x="501" d="M55 170q0 80 57 137.5t138 57.5t137.5 -57.5t56.5 -137.5t-56.5 -137.5t-137.5 -57.5t-138 57.5t-57 137.5z" />
<glyph unicode="/" horiz-adv-x="1120" d="M63 -340l805 1993h234l-805 -1993h-234z" />
<glyph unicode="0" d="M68 772q0 65 4.5 130.5t17 146t32.5 151.5t54 140.5t77.5 118.5t107.5 79.5t141 30.5t141 -30.5t107.5 -79.5t77.5 -118.5t54 -140.5t32.5 -151.5t17 -146t4.5 -130.5t-4.5 -130.5t-17 -146t-32.5 -151.5t-54 -140.5t-77.5 -118.5t-107.5 -79.5t-141 -30.5t-141 30.5 t-107.5 79.5t-77.5 118.5t-54 140.5t-32.5 151.5t-17 146t-4.5 130.5zM365 664.5q2 -49.5 3.5 -104t11.5 -109.5t23.5 -98.5t39 -71t59.5 -27.5t59.5 27.5t39 71t23.5 98.5t11.5 109.5t3.5 104t0 82.5v25v25q2 33 0 82.5t-3.5 104t-11.5 109.5t-23.5 98.5t-39 71t-59.5 27.5 t-59.5 -27.5t-39 -71t-23.5 -98.5t-11.5 -109.5t-3.5 -104t0 -82.5v-25v-25q-2 -33 0 -82.5z" />
<glyph unicode="1" d="M225 1278v266h445v-1544h-297v1278h-148z" />
<glyph unicode="2" d="M84 0l348 639q107 197 144 290q55 137 55 236q0 46 -9.5 86t-38.5 72.5t-75 32.5q-123 0 -123 -250l4 -98h-283l-4 84q0 114 18.5 197t62.5 149t124.5 99.5t198.5 33.5q197 0 306.5 -100t109.5 -295q0 -109 -32 -204.5t-95 -215.5l-258 -490h358v-266h-811z" />
<glyph unicode="3" d="M70 406h286l-2 -44q0 -45 29.5 -82.5t85.5 -37.5q44 0 73 20t41 56.5t15.5 67.5t3.5 75q0 128 -50.5 174t-180.5 41v266q131 0 182 40t51 163q0 158 -104 158q-103 0 -103 -160v-31h-264q-5 97 11.5 176.5t57 144t115 100.5t177.5 36q185 0 288 -109t103 -295 q0 -289 -191 -364v-4q62 -16 109 -52t74.5 -86t41 -107.5t13.5 -121.5q0 -212 -122.5 -333.5t-334.5 -121.5q-194 0 -304 118t-101 313z" />
<glyph unicode="4" d="M57 373v229l410 942h336v-938h125v-233h-125v-373h-297v373h-449zM272 606h234v586h-4z" />
<glyph unicode="5" d="M100 45l52 268q88 -71 188 -71q115 0 177.5 81.5t62.5 198.5q0 139 -84.5 207t-227.5 68q-36 0 -116 -13l120 760h590v-266h-377l-41 -250q230 -12 345.5 -145t115.5 -365q0 -254 -128.5 -398.5t-379.5 -144.5q-154 0 -297 70z" />
<glyph unicode="6" d="M76 518q0 190 55 362t164 402l127 262h295l-295 -602l4 -4q47 42 91 63t101 21q67 0 121.5 -32t89 -82.5t58.5 -115.5t33.5 -127.5t9.5 -121.5q0 -86 -13.5 -165t-45.5 -153.5t-80.5 -129t-123.5 -87.5t-169 -33q-89 0 -161.5 31t-120 82.5t-80 122t-46.5 147t-14 160.5z M373 485q0 -32 6 -70.5t19.5 -81t40.5 -70t63 -27.5q41 0 69.5 30.5t40.5 79t16.5 87.5t4.5 77q0 34 -5 70.5t-17 78t-38 67.5t-63 26q-33 0 -58.5 -20.5t-39.5 -50.5t-23.5 -68.5t-12.5 -69.5t-3 -58z" />
<glyph unicode="7" d="M84 0l481 1278h-415v266h833l-582 -1544h-317z" />
<glyph unicode="8" d="M59 422q0 321 269 409v5q-101 34 -156 123t-55 202q0 174 107 291t280 117q171 0 278 -117t107 -291q0 -113 -54.5 -201.5t-156.5 -125.5v2v-5q268 -85 268 -409q0 -192 -125 -319.5t-317 -127.5q-193 0 -319 128t-126 319zM373 461q0 -35 5.5 -69t18.5 -70t40.5 -58 t64.5 -22t64 23t41 59t20 70.5t6 66.5t-7 67.5t-21.5 72t-42 60t-62.5 23.5q-37 0 -63.5 -23t-39.5 -59.5t-18.5 -71t-5.5 -69.5zM414 1167q0 -176 84 -176q27 0 46 13.5t28 30.5t14 45t5.5 44t0.5 41q0 26 -3 50t-12 52t-29 45t-50 17q-26 0 -44 -17t-26 -44.5t-11 -51.5 t-3 -49z" />
<glyph unicode="9" d="M76 1004q0 86 13.5 165t45.5 153t80.5 128t123.5 86.5t169 32.5q90 0 162.5 -30.5t120 -82t79.5 -122t46 -147.5t14 -161q0 -189 -55.5 -362.5t-163.5 -399.5l-127 -264h-295l295 604l-4 4q-48 -43 -92 -64.5t-101 -21.5q-67 0 -121.5 32.5t-89 83.5t-58 117t-33 128 t-9.5 121zM373 1034q0 -34 5 -70t17 -77t38 -67.5t63 -26.5q33 0 59 21t40 50.5t23 68.5t12 69.5t3 58.5q0 33 -6 70.5t-19 79t-40 68.5t-64 26q-41 0 -69.5 -30t-40.5 -78t-16.5 -86.5t-4.5 -76.5z" />
<glyph unicode=":" horiz-adv-x="501" d="M55 170q0 80 57 137.5t138 57.5t137.5 -57.5t56.5 -137.5t-56.5 -137.5t-137.5 -57.5t-138 57.5t-57 137.5zM55 860q0 80 57 137.5t138 57.5t137.5 -57.5t56.5 -137.5t-56.5 -137t-137.5 -57t-138 57t-57 137z" />
<glyph unicode=";" horiz-adv-x="501" d="M-68 -295l205 627h307l-307 -627h-205zM57 860q0 80 57 137.5t138 57.5t137.5 -57.5t56.5 -137.5t-56.5 -137t-137.5 -57t-138 57t-57 137z" />
<glyph unicode="&#x3c;" d="M41 426v203l922 465v-228l-676 -342l676 -331v-228z" />
<glyph unicode="=" d="M43 211v225h920v-225h-920zM43 610v226h920v-226h-920z" />
<glyph unicode="&#x3e;" d="M43 -35v228l674 331l-674 342v228l920 -465v-203z" />
<glyph unicode="?" horiz-adv-x="929" d="M51 1118q-8 203 93 327t300 124t314.5 -129.5t115.5 -331.5q0 -90 -23.5 -174.5t-82 -156t-143.5 -93.5v-201h-306v381q27 -6 52 -6q50 0 86 22t55.5 59t28 77.5t8.5 85.5q0 30 -4 60t-14.5 64.5t-34 55.5t-56.5 21q-52 0 -76 -45.5t-24 -102.5v-37h-289zM281 170 q0 79 57 137t135 58q81 0 139 -57.5t58 -137.5t-58 -137.5t-139 -57.5q-78 0 -135 58t-57 137z" />
<glyph unicode="@" horiz-adv-x="1705" d="M78 780q0 67 12 137.5t41 148.5t71.5 149.5t108.5 136.5t147 112.5t192.5 76t240.5 28.5q208 0 376 -80.5t264.5 -227t96.5 -331.5q0 -100 -24 -187t-63 -147.5t-90 -110t-102 -79.5t-102 -50.5t-88.5 -28.5t-62.5 -8q-41 0 -69 36t-17 91l-4 5q-132 -123 -252 -123 q-159 0 -252.5 106t-93.5 266q0 125 52.5 235t153.5 179.5t228 69.5q175 0 260 -123l22 108h201l-108 -626q-10 -47 24 -45q43 3 103 67q97 103 119 247q4 30 5 60q7 250 -156 398.5t-427 148.5q-140 0 -260.5 -48t-205.5 -132.5t-133 -203t-48 -255.5q0 -202 86.5 -351.5 t240 -226.5t355.5 -77q211 0 419 188h197q-117 -160 -279 -249t-354 -89q-249 0 -437 101.5t-288 284t-100 419.5zM633 737q-6 -96 35.5 -154t109.5 -67q44 -7 84 6t69 38.5t51.5 60t34.5 71.5t15 72q8 101 -34.5 169.5t-133.5 61.5q-94 -7 -159.5 -82.5t-71.5 -175.5z" />
<glyph unicode="A" horiz-adv-x="1081" d="M16 0l359 1544h321l371 -1544h-326l-57 260h-309l-56 -260h-303zM424 502h215l-78 411l-35 234h-4l-33 -234z" />
<glyph unicode="B" horiz-adv-x="980" d="M109 0v1544h299q110 0 181.5 -15t137.5 -69q75 -60 116.5 -154.5t41.5 -193.5q0 -206 -166 -319q90 -43 140 -147t50 -212q0 -111 -39 -196t-108.5 -136t-159 -76.5t-196.5 -25.5h-297zM414 256h11q82 0 131 55q52 59 52 158q0 93 -52 151q-50 55 -133 54h-9v-418z M414 911q85 0 133.5 53t48.5 142q0 86 -48 136q-44 46 -121 46h-13v-377z" />
<glyph unicode="C" horiz-adv-x="925" d="M53 786q0 115 29 227.5t87.5 211.5t137.5 174.5t187 119.5t229 44q74 0 156 -29v-281q-66 17 -115 17q-97 0 -172.5 -41.5t-121 -111t-68.5 -153.5t-23 -176q0 -71 14 -141.5t44.5 -137.5t74.5 -118.5t108.5 -83t141.5 -31.5q42 0 117 23v-289q-65 -26 -142 -26 q-128 0 -239.5 44.5t-192 121t-138 178.5t-86 218.5t-28.5 239.5z" />
<glyph unicode="D" horiz-adv-x="1085" d="M109 0v1544h231h13q23 1 46 1q297 0 462 -195q171 -201 171 -590q0 -136 -21 -248.5t-69.5 -208.5t-123 -162.5t-185.5 -103.5t-252 -37h-272zM414 274h12q62 0 114 28q56 32 90.5 83t57 119t31 131.5t8.5 126.5q0 65 -8 129t-30 134.5t-55.5 123t-90.5 87t-129 34.5 v-996z" />
<glyph unicode="E" horiz-adv-x="802" d="M109 0v1544h614v-287h-309v-335h272v-287h-272v-348h313v-287h-618z" />
<glyph unicode="F" horiz-adv-x="806" d="M109 0v1544h616v-287h-311v-329h280v-287h-280v-641h-305z" />
<glyph unicode="G" horiz-adv-x="1153" d="M53 764q0 80 7.5 157t25.5 158t46 151.5t72 133.5t100 108t132.5 71t167.5 26q172 0 288 -98.5t167 -268.5l-297 -115q-6 31 -10.5 51.5t-16.5 51.5t-27.5 49.5t-42 32.5t-59.5 14h-10q-43 0 -78 -23q-39 -26 -63 -73.5t-40 -100.5t-23.5 -117.5t-10 -109.5t-2.5 -90 q0 -514 235 -514q55 0 93.5 33t56 86t24.5 100.5t7 95.5h-195v287h500v-121q0 -76 -5.5 -146t-20.5 -148.5t-38 -144.5t-62 -127.5t-89.5 -104t-122.5 -68t-158 -25.5q-101 0 -185 34.5t-143 94.5t-103 137t-69.5 167t-38 178.5t-12.5 177.5z" />
<glyph unicode="H" horiz-adv-x="1136" d="M109 0v1544h305v-604h309v604h305v-1544h-305v653h-309v-653h-305z" />
<glyph unicode="I" horiz-adv-x="522" d="M109 0v1544h305v-1544h-305z" />
<glyph unicode="J" horiz-adv-x="720" d="M25 23v305q29 -38 71 -62t88 -24q28 0 49.5 9t35.5 20t24 34t14.5 38.5t7 47t2.5 45v45.5v19v1044h306v-1044v-13q0 -34 -0.5 -55t-3.5 -65t-9 -75t-18.5 -75t-30.5 -75t-46.5 -64.5t-64.5 -54.5t-86 -34.5t-110 -13.5q-138 0 -229 48z" />
<glyph unicode="K" horiz-adv-x="1050" d="M109 0v1544h305v-690h4l254 690h311l-285 -713l322 -831h-322l-280 786h-4v-786h-305z" />
<glyph unicode="L" horiz-adv-x="763" d="M109 0v1544h305v-1257h319v-287h-624z" />
<glyph unicode="M" horiz-adv-x="1478" d="M47 0l135 1544h402l149 -911h4l123 911h410l162 -1544h-314l-74 1112h-4l-49 -381l-131 -731h-235l-150 739l-51 344v29h-4l-45 -1112h-328z" />
<glyph unicode="N" horiz-adv-x="1173" d="M109 0v1544h292l381 -932l4 4q-24 99 -24 234v694h305v-1544h-289l-377 932l-4 -4l15 -156l2 -63v-709h-305z" />
<glyph unicode="O" horiz-adv-x="1191" d="M53 772q0 169 30.5 305t82 226.5t122 151.5t147.5 87.5t161 26.5t161 -26.5t147.5 -87.5t122 -151.5t82 -226.5t30.5 -305t-30.5 -305t-82 -226.5t-122 -151.5t-147.5 -87.5t-161 -26.5t-161 26.5t-147.5 87.5t-122 151.5t-82 226.5t-30.5 305zM379 772q0 -41 2 -82 t8.5 -105t22 -117t38 -103t60.5 -78.5t86 -28.5t86 28.5t60.5 78.5t38 103t22 117t8.5 105t2 82q0 44 -2 86.5t-8.5 106.5t-22 116.5t-38 101t-60.5 76t-86 27.5t-86 -27.5t-60.5 -76t-38 -101t-22 -116.5t-8.5 -106.5t-2 -86.5z" />
<glyph unicode="P" horiz-adv-x="997" d="M109 0v1544h317h14q10 2 22 2q8 0 18 -1q24 -2 52.5 -2t62 -7.5t68.5 -15.5t70 -27t67 -41.5t59 -58t47.5 -78t32 -101t11.5 -127.5q0 -214 -127 -334t-342 -120l-67 4v-637h-305zM414 885h21q99 -1 152 43q58 48 58 164q0 200 -174 200h-57v-407z" />
<glyph unicode="Q" horiz-adv-x="1191" d="M53 772q0 169 30.5 305t82 226.5t122 151.5t147.5 87.5t161 26.5t161 -26.5t147.5 -87.5t122 -151.5t82 -226.5t30.5 -305q0 -352 -115 -545l133 -135l-160 -151l-118 129q-124 -95 -283 -95q-84 0 -161 26.5t-147.5 87.5t-122 151.5t-82 226.5t-30.5 305zM379 772 q0 -41 2 -82t8.5 -105t22 -117t38 -103t60.5 -78.5t86 -28.5q36 0 74 27l-183 190l158 154l139 -154q29 102 29 297q0 44 -2 86.5t-8.5 106.5t-22 116.5t-38 101t-60.5 76t-86 27.5t-86 -27.5t-60.5 -76t-38 -101t-22 -116.5t-8.5 -106.5t-2 -86.5z" />
<glyph unicode="R" horiz-adv-x="1085" d="M109 0v1544h307q52 0 92 -2t99.5 -12t104.5 -27t93.5 -50t80 -78.5t52 -115.5t20.5 -157q0 -132 -54 -235.5t-165 -164.5l269 -702h-322l-268 713h-4v-713h-305zM414 881l53 -2q100 0 147.5 60t47.5 161q0 90 -50 144q-45 48 -136 49q-10 0 -21 -1h-41v-411z" />
<glyph unicode="S" horiz-adv-x="901" d="M70 1114q0 124 45 226t138.5 165.5t219.5 63.5q140 0 270 -76v-297q-113 98 -221 98q-71 0 -112 -40.5t-41 -110.5q0 -51 25.5 -95.5t66.5 -79t91 -70t99.5 -77t90.5 -89.5t66.5 -119t25.5 -156q0 -212 -118 -347t-327 -135q-67 0 -139 20.5t-123 57.5v291 q120 -82 231 -82q75 0 126 46.5t51 121.5q0 29 -8.5 54.5t-18 42.5t-32.5 38t-35.5 30.5t-44 31t-42.5 28.5q-71 48 -119.5 91t-88 97.5t-58 121.5t-18.5 149z" />
<glyph unicode="T" horiz-adv-x="847" d="M31 1257v287h786v-287h-242v-1257h-305v1257h-239z" />
<glyph unicode="U" horiz-adv-x="1114" d="M100 397v1147h306v-999v-27q0 -25 -0.5 -51t3 -52t8 -50t16 -44.5t27 -36t40.5 -24t57 -8.5q25 0 45 4.5t34.5 10.5t26 19t19 22.5t12.5 29t8 31t4.5 36t2 36t0.5 38.5v1065h305v-1126q0 -44 -2 -77t-12 -82t-28 -85t-52 -75.5t-81.5 -65t-120 -42t-163.5 -16.5 q-219 0 -337 105t-118 317z" />
<glyph unicode="V" horiz-adv-x="1157" d="M16 1544h328l184 -741q12 -39 21.5 -82t19.5 -99.5t15 -82.5h4q5 31 12.5 85t15.5 98.5t19 84.5l186 737h320l-428 -1544h-250z" />
<glyph unicode="W" horiz-adv-x="1624" d="M16 1544h312l131 -737q8 -49 13.5 -101t11 -125.5t8.5 -101.5h4q4 30 12 102t15.5 124.5t17.5 101.5l153 737h242l197 -1065h4q3 36 7.5 102t9.5 120t13 102l121 741h320l-320 -1544h-264l-158 815q-6 56 -23.5 162.5t-19.5 120.5h-4q-5 -30 -13.5 -89t-17 -105.5 t-18.5 -88.5l-176 -815h-266z" />
<glyph unicode="X" horiz-adv-x="1116" d="M45 0l328 797l-328 747h344l88 -215q62 -174 74 -235h4q20 101 70 235l92 215h330l-330 -747l354 -797h-354l-99 246q-25 67 -67 231h-4q-8 -26 -20.5 -73t-24 -85t-23.5 -73l-90 -246h-344z" />
<glyph unicode="Y" horiz-adv-x="1052" d="M8 1544h336l160 -420l22 -75h4l35 114l137 381h342l-360 -805v-739h-305v739z" />
<glyph unicode="Z" horiz-adv-x="1040" d="M37 0l514 1257h-449v287h908l-529 -1257h486v-287h-930z" />
<glyph unicode="[" horiz-adv-x="655" d="M109 -254v1798h514v-201h-248v-1396h252v-201h-518z" />
<glyph unicode="\" horiz-adv-x="512" d="M-217 1653h233l713 -1653h-233z" />
<glyph unicode="]" horiz-adv-x="655" d="M29 -53h252v1396h-248v201h514v-1798h-518v201z" />
<glyph unicode="^" d="M43 772l336 772h246l338 -772l-205 -96l-256 596l-254 -596z" />
<glyph unicode="_" horiz-adv-x="1024" d="M0 -229h1024v-154h-1024v154z" />
<glyph unicode="`" horiz-adv-x="614" d="M104 1450l209 94l197 -295l-141 -82z" />
<glyph unicode="a" horiz-adv-x="886" d="M53 518q0 63 5 125t23 140t46.5 135.5t81 97t121.5 39.5t118.5 -40.5t75.5 -107.5h4v127h289v-1034h-289v117h-4q-68 -137 -190 -137q-66 0 -118 40.5t-82 100.5t-49 136.5t-25.5 140t-6.5 120.5zM342 522q0 -28 1 -55t7.5 -70.5t17 -74.5t31.5 -54.5t50 -23.5 q32 0 54 34t31 86.5t12 89.5t3 68q0 33 -3 69.5t-12 88.5t-32.5 85.5t-57.5 33.5q-33 0 -56 -33t-31.5 -85.5t-11.5 -88.5t-3 -70z" />
<glyph unicode="b" horiz-adv-x="886" d="M72 0v1653h288v-746h5q26 67 75.5 107.5t116.5 40.5q50 0 92 -21t70 -54t49.5 -80.5t33.5 -95t19.5 -102.5t10 -98t2.5 -86q0 -58 -6 -120.5t-24.5 -140t-48 -137t-81.5 -100t-119 -40.5q-125 0 -190 137h-5v-117h-288zM340 522q0 -24 1 -50.5t7 -70t16 -76t29.5 -57 t46.5 -24.5q34 0 57 32t32.5 84t12.5 89t3 73q0 32 -3.5 69.5t-12.5 89t-31.5 85t-55.5 33.5q-28 0 -48 -24.5t-30 -56t-16 -75.5t-7 -69.5t-1 -51.5z" />
<glyph unicode="c" horiz-adv-x="645" d="M53 510q0 81 13 156.5t43 147.5t75 124.5t114.5 84.5t156.5 32q70 0 143 -31v-254q-36 33 -84 33q-50 0 -86 -27.5t-53.5 -72t-25 -88.5t-7.5 -89q0 -49 6.5 -91.5t23 -87t52 -71t86.5 -26.5q42 0 88 31v-265q-76 -36 -166 -36q-81 0 -147 32.5t-108 85.5t-71 123.5 t-41 142.5t-12 146z" />
<glyph unicode="d" horiz-adv-x="886" d="M53 518q0 63 5 125t23 140t46.5 135.5t81 97t121.5 39.5t118.5 -40.5t75.5 -107.5h4v746h289v-1653h-289v117h-4q-68 -137 -190 -137q-66 0 -118 40.5t-82 100.5t-49 136.5t-25.5 140t-6.5 120.5zM342 522q0 -28 1 -55t7.5 -70.5t17 -74.5t31.5 -54.5t50 -23.5 q32 0 54 34t31 86.5t12 89.5t3 68q0 33 -3 69.5t-12 88.5t-32.5 85.5t-57.5 33.5q-33 0 -56 -33t-31.5 -85.5t-11.5 -88.5t-3 -70z" />
<glyph unicode="e" horiz-adv-x="847" d="M53 496q0 79 11.5 154t40 149.5t71.5 130.5t112 90.5t156 34.5q154 0 258 -132q95 -119 94 -321q0 -21 -1 -43l-7 -119h-456q3 -108 13 -149q24 -90 95 -90q92 0 92 118h246q-20 -155 -99 -247t-228 -92q-85 0 -153.5 29.5t-113.5 78.5t-75 116t-43 139.5t-13 152.5z M334 618h211v25q0 30 -4 59t-14.5 61t-32.5 51.5t-54 19.5q-31 0 -53.5 -19t-33 -49.5t-15 -59t-4.5 -57.5v-31z" />
<glyph unicode="f" horiz-adv-x="612" d="M39 797v237h106v291q0 64 6 111.5t24.5 94.5t50.5 76.5t86.5 47.5t129.5 18q55 0 125 -24v-279q-29 16 -51 16q-15 0 -27 -3.5t-20.5 -11t-14.5 -14.5t-10 -20.5t-6 -21.5t-3 -25t-1 -24v-25v-22v-185h133v-237h-133v-797h-289v797h-106z" />
<glyph unicode="g" horiz-adv-x="894" d="M53 502q0 44 2.5 87.5t10 100t19.5 106t34 98.5t50 83.5t70 56t93 21.5q69 0 120.5 -40.5t77.5 -105.5h5v125h288v-1124q0 -222 -96.5 -323t-290.5 -101q-351 0 -373 377h256q9 -148 105 -148q23 0 41.5 9t30.5 22t20 36t12 41t6 47.5t2 45.5t-0.5 45t-0.5 37v131h-5 q-36 -71 -77 -110t-109 -39q-135 0 -223 172q-68 136 -68 350zM342 522q0 -28 1 -55t7.5 -70.5t17 -74.5t32.5 -54.5t51 -23.5q32 0 53.5 33.5t30 86.5t11.5 89t3 69q0 25 -1 51.5t-7 70t-16 75.5t-30.5 56t-48.5 24q-34 0 -57 -33t-32 -85.5t-12 -88.5t-3 -70z" />
<glyph unicode="h" horiz-adv-x="868" d="M72 0v1653h288v-779h5q31 78 94.5 129.5t144.5 51.5q41 0 73 -12t52.5 -32.5t35 -48t20.5 -59.5q7 -33 11 -67q4 -28 3 -56v-12q0 -17 -0.5 -34t0.5 -33v-33v-668h-289v567q0 6 1 32.5t1 43t-3.5 42t-11 41t-22.5 27t-37 11.5q-78 0 -78 -119v-645h-288z" />
<glyph unicode="i" horiz-adv-x="428" d="M31 1343q0 78 55 130.5t133 52.5q74 0 126 -56t52 -131q0 -74 -54.5 -128t-129.5 -54t-128.5 54.5t-53.5 131.5zM70 0v1034h288v-1034h-288z" />
<glyph unicode="j" horiz-adv-x="428" d="M31 1343q0 78 55 130.5t133 52.5q74 0 126 -56t52 -131q0 -74 -54.5 -128t-129.5 -54t-128.5 54.5t-53.5 131.5zM70 -510v1544h288v-1544h-288z" />
<glyph unicode="k" horiz-adv-x="901" d="M72 0v1653h288v-981h5l157 362h314l-234 -422l285 -612h-318l-204 479h-5v-479h-288z" />
<glyph unicode="l" horiz-adv-x="430" d="M72 0v1653h288v-1653h-288z" />
<glyph unicode="m" horiz-adv-x="1308" d="M72 0v1034h288l2 -166h5q92 187 254 187q75 0 121 -50t57 -126h4q38 75 104 125.5t144 50.5q30 0 55 -8t43.5 -19.5t32.5 -32t23 -38t15.5 -46.5t9.5 -48.5t5 -51.5t2 -49v-47v-715h-289v561q0 5 0.5 27.5t0.5 37t-1.5 38t-6.5 39t-12.5 31.5t-20.5 24t-31 8 q-78 0 -78 -117v-649h-289v580q0 5 0.5 25.5t0 33t-1.5 34t-5.5 34.5t-12 27t-20 21t-29.5 7q-82 0 -82 -119v-63v-580h-288z" />
<glyph unicode="n" horiz-adv-x="868" d="M72 0v1034h288v-160h5q31 78 94.5 129.5t144.5 51.5q41 0 73 -12t52.5 -32.5t35 -48t20.5 -59.5q7 -33 11 -67q4 -28 3 -56v-12q0 -17 -0.5 -34t0.5 -33v-33v-668h-289v567q0 6 1 32.5t1 43t-3.5 42t-11 41t-22.5 27t-37 11.5q-78 0 -78 -119v-645h-288z" />
<glyph unicode="o" horiz-adv-x="892" d="M53 516q0 84 11 158t39 145.5t71 122.5t112.5 82t159.5 31t159.5 -31t113 -82t71.5 -122.5t39 -145.5t11 -158t-11 -157.5t-39 -144.5t-71.5 -121.5t-113 -81.5t-159.5 -31t-159.5 31t-112.5 81.5t-71 121.5t-39 144.5t-11 157.5zM342 516q0 -27 1 -52.5t7 -70t16 -76 t31 -55.5t49 -24q35 0 58 33t32 86t12 88.5t3 70.5t-3 70.5t-12 89t-32 86.5t-58 33q-28 0 -49 -24.5t-31 -56t-16 -76t-7 -70t-1 -52.5z" />
<glyph unicode="p" horiz-adv-x="886" d="M72 -510v1544h288v-127h5q26 67 75.5 107.5t116.5 40.5q50 0 92 -21t70 -54t49.5 -80.5t33.5 -95t19.5 -102.5t10 -98t2.5 -86q0 -58 -6 -120.5t-24.5 -140t-48 -137t-81.5 -100t-119 -40.5q-125 0 -190 137h-5v-627h-288zM340 522q0 -24 1 -50.5t7 -70t16 -76t29.5 -57 t46.5 -24.5q105 0 105 278q0 32 -3.5 69.5t-12.5 89t-31.5 85t-55.5 33.5q-28 0 -48 -24.5t-30 -56t-16 -75.5t-7 -69.5t-1 -51.5z" />
<glyph unicode="q" horiz-adv-x="886" d="M53 518q0 63 5 125t23 140t46.5 135.5t81 97t121.5 39.5t118.5 -40.5t75.5 -107.5h4v127h289v-1544h-289v627h-4q-68 -137 -190 -137q-66 0 -118 40.5t-82 100.5t-49 136.5t-25.5 140t-6.5 120.5zM342 522q0 -28 1 -55t7.5 -70.5t17 -74.5t31.5 -54.5t50 -23.5 q32 0 54 34t31 86.5t12 89.5t3 68q0 33 -3 69.5t-12 88.5t-32.5 85.5t-57.5 33.5q-33 0 -56 -33t-31.5 -85.5t-11.5 -88.5t-3 -70z" />
<glyph unicode="r" horiz-adv-x="645" d="M72 0v1034h288v-125h5q89 151 235 164v-280q-28 4 -45 4q-32 0 -57.5 -5t-45 -12.5t-34 -22t-24.5 -27t-16.5 -34.5t-10 -38t-5 -44.5t-2 -46.5t-0.5 -51v-516h-288z" />
<glyph unicode="s" horiz-adv-x="770" d="M61 98l127 205q78 -67 144 -67q35 0 59.5 23.5t24.5 62.5q1 27 -17 49t-47 39t-64 35t-70.5 43.5t-65 58.5t-48 85.5t-18.5 119.5q0 141 101 222t245 81q156 0 277 -88l-117 -211q-37 33 -68 50t-71 17q-37 0 -57.5 -20.5t-20.5 -54.5q1 -24 19.5 -44t47.5 -36t64.5 -33 t70 -42t63.5 -56.5t47 -81.5t18 -113q0 -159 -88.5 -260.5t-243.5 -101.5q-82 0 -164 31.5t-148 86.5z" />
<glyph unicode="t" horiz-adv-x="630" d="M61 797v237h101v287h289v-287h118v-237h-118v-797h-289v797h-101z" />
<glyph unicode="u" horiz-adv-x="866" d="M72 414v620h288v-567q0 -7 -1 -35t-1 -47t3.5 -47t10.5 -45t23 -30t39 -13q21 0 35.5 10.5t21.5 23.5t10.5 36.5t4 36t0.5 36.5v10l2 631h287v-659q0 -187 -91.5 -291t-277.5 -104q-68 0 -122.5 14.5t-91 38t-63.5 59.5t-41.5 71.5t-22.5 82.5t-10.5 84t-2.5 84z" />
<glyph unicode="v" horiz-adv-x="925" d="M31 1034h286l138 -567l2 -16h4l22 106l11 43l102 434h299l-299 -1034h-268z" />
<glyph unicode="w" horiz-adv-x="1421" d="M31 1034h280l140 -606h4l135 606h248l131 -606h4l20 111l123 495h275l-287 -1034h-238l-94 350l-61 299h-4l-60 -330l-82 -319h-241z" />
<glyph unicode="x" horiz-adv-x="1001" d="M47 0l297 557l-258 477h299l82 -157l31 -64l116 221h299l-264 -477l305 -557h-305l-151 285l-154 -285h-297z" />
<glyph unicode="y" horiz-adv-x="925" d="M31 1034h291l108 -418l35 -172h4l135 590h291l-444 -1544h-285l166 530z" />
<glyph unicode="z" horiz-adv-x="821" d="M47 0l328 795h-295v239h694l-319 -794h284v-240h-692z" />
<glyph unicode="{" horiz-adv-x="614" d="M37 563v156q82 0 117.5 61.5t35.5 155.5v332q0 143 58 209.5t194 66.5h179v-155q-95 0 -129.5 -52.5t-34.5 -152.5v-271q0 -121 -34.5 -183t-133.5 -85v-4q52 -9 87 -36t52 -69.5t23 -85.5t6 -100v-244q0 -95 35 -149.5t129 -54.5v-156h-134q-91 0 -150 18.5t-91 61 t-44 97.5t-12 140v283q0 103 -34.5 160t-118.5 57z" />
<glyph unicode="|" horiz-adv-x="512" d="M143 0v1653h226v-1653h-226z" />
<glyph unicode="}" horiz-adv-x="614" d="M-6 -98q94 0 129 54.5t35 149.5v244q0 57 6 100t23 85.5t52 69.5t87 36v4q-99 23 -133.5 85t-34.5 183v271q0 100 -34.5 152.5t-129.5 52.5v155h178q136 0 194 -66.5t58 -209.5v-332q0 -94 36 -155.5t118 -61.5v-156q-154 0 -154 -217v-283q0 -85 -12 -140t-44 -97.5 t-91 -61t-150 -18.5h-133v156z" />
<glyph unicode="~" d="M43 465q25 52 49 90.5t57.5 79t76 62.5t89.5 22q45 0 104 -21t105.5 -46.5t96 -46.5t77.5 -21q22 0 40.5 9t34.5 27.5t26.5 34t26 42.5t22.5 38l115 -149q-64 -114 -99 -154q-73 -86 -166 -86q-53 0 -134 34t-151 67.5t-96 33.5q-20 0 -38.5 -8.5t-31 -18.5t-27 -31.5 t-21.5 -33.5t-21 -40l-18 -36z" />
<glyph unicode="&#xa1;" horiz-adv-x="503" d="M57 866q0 80 57.5 137.5t137.5 57.5q79 0 136.5 -57.5t57.5 -137.5t-57 -137t-137 -57t-137.5 57.5t-57.5 136.5zM100 -510v1081h301v-1081h-301z" />
<glyph unicode="&#xa2;" d="M154 735q0 69 7 133.5t26.5 135t50.5 126.5t82 102t118 68v142h133v-129q66 -6 121 -29v-260q-45 31 -76 31q-47 0 -81 -31.5t-50.5 -80.5t-24 -95t-7.5 -90q0 -42 6.5 -81.5t22 -81.5t47.5 -67.5t77 -25.5q39 0 86 26v-260q-50 -23 -121 -37v-127h-133v134 q-77 24 -134.5 76t-89 122t-46 144t-14.5 155z" />
<glyph unicode="&#xa3;" d="M23 573v158h176q-4 49 -26.5 174.5t-22.5 196.5q0 204 116.5 329t319.5 125q404 0 397 -460h-262l2 32q0 45 -9 81.5t-37 66t-73 29.5q-55 0 -91.5 -31.5t-50 -73t-13.5 -90.5q0 -66 21.5 -192.5t23.5 -186.5h260v-158h-267q-13 -180 -96 -323l43 2q53 0 157 -20.5 t159 -20.5q124 0 223 51v-242q-74 -43 -178 -43q-83 0 -242.5 30t-241.5 30q-109 0 -221 -37v231q130 132 123 342h-190z" />
<glyph unicode="&#xa4;" d="M8 281l86 90q-37 70 -54 128.5t-17 133.5q0 142 71 264l-86 86l156 164l86 -88q128 78 252 78q136 0 260 -78l88 88l147 -164l-84 -86q74 -124 74 -262q0 -154 -74 -264l84 -90l-147 -162l-88 88q-129 -78 -252 -78q-141 0 -260 78l-86 -88zM264 635q0 -102 71.5 -183 t170.5 -81q100 0 169.5 80.5t69.5 183.5t-69.5 181.5t-169.5 78.5q-99 0 -170.5 -79t-71.5 -181z" />
<glyph unicode="&#xa5;" d="M-16 1544h335l160 -502l23 -75h4l35 114l137 463h342l-260 -586h153v-135h-215l-36 -84v-88h251v-135h-251v-516h-310v516h-254v135h254v88l-39 84h-215v135h154z" />
<glyph unicode="&#xa6;" horiz-adv-x="512" d="M143 0v674h226v-674h-226zM143 981v672h226v-672h-226z" />
<glyph unicode="&#xa7;" horiz-adv-x="1005" d="M61 637q0 186 162 297q-57 43 -90 114.5t-33 151.5q1 94 33.5 166.5t87.5 116t123.5 65t147.5 21.5q189 0 295 -99.5t106 -285.5v-43h-272v47q0 71 -32 116.5t-102 45.5q-60 0 -89 -34t-29 -93q5 -25 14.5 -48t19.5 -39.5t29.5 -35t31.5 -29t37.5 -26.5t37 -22t41 -21.5 t38.5 -20.5q135 -72 177 -101q111 -79 137 -195q9 -38 10 -83q9 -211 -188 -323q75 -51 114 -134.5t39 -179.5q0 -160 -111.5 -249t-275.5 -89q-115 0 -207 37.5t-150.5 119.5t-58.5 198v38h281v-26q0 -70 31 -109t106 -39q50 0 74.5 39t24.5 99q0 22 -3 41t-11.5 36.5 t-15 30.5t-22.5 28t-24 23t-30 22.5t-30.5 20t-34.5 21t-34 20.5q-16 10 -51.5 30.5t-52.5 30.5t-48 30t-47 33t-41 34.5t-38 39.5t-30 43t-25 49.5t-14.5 55.5t-7.5 64zM326 672q0 -35 11.5 -65.5t27 -51t44.5 -43t49.5 -35.5t55.5 -33l21 -12l22 -14q56 19 88.5 59 t32.5 94q0 29 -11 55.5t-23.5 44t-40 38.5t-42.5 30t-50.5 28.5t-45.5 25.5l-47 26q-92 -55 -92 -147z" />
<glyph unicode="&#xa8;" horiz-adv-x="614" d="M-57 1350q0 65 44.5 110t110.5 45q63 0 106.5 -46t43.5 -109q0 -61 -45.5 -105.5t-108.5 -44.5q-62 0 -106.5 44.5t-44.5 105.5zM369 1350q0 65 44.5 110t110.5 45q63 0 106.5 -46t43.5 -109q0 -61 -45.5 -105.5t-108.5 -44.5q-62 0 -106.5 44.5t-44.5 105.5z" />
<glyph unicode="&#xa9;" horiz-adv-x="1699" d="M45 776q0 162 64 309t172 253t257.5 168.5t313.5 62.5t312.5 -62.5t256 -168.5t171 -253t63.5 -309q0 -218 -107.5 -402.5t-292.5 -291.5t-403 -107q-219 0 -405 107t-294 291.5t-108 402.5zM205 776q0 -176 85.5 -325.5t234.5 -237t327 -88.5q175 1 323 88.5t234 237 t86 325.5q0 174 -86 322t-234 234.5t-323 86.5q-133 0 -253.5 -51t-206.5 -137.5t-136.5 -205t-50.5 -249.5zM440 782q0 201 120 330t321 129q148 0 251.5 -81t129.5 -222h-183q-13 74 -67.5 115t-132.5 41q-122 0 -190 -90.5t-68 -217.5q0 -123 72.5 -220t191.5 -97 q76 0 133 46t61 118h183q-17 -141 -124.5 -226t-252.5 -85q-198 0 -321.5 131.5t-123.5 328.5z" />
<glyph unicode="&#xaa;" horiz-adv-x="614" d="M57 1247q0 49 6.5 96.5t24 102.5t56 89t94.5 34q88 0 124 -88h-2h5v75h190v-620h-190v70h-5q-40 -82 -120 -82q-52 0 -90 34t-57 87t-27.5 103.5t-8.5 98.5zM74 709v102h481v-102h-481zM246 1249q0 -170 69 -170q21 0 35 21t20 52.5t8.5 55t2.5 41.5q0 20 -2 41.5 t-8 52.5t-21.5 50.5t-38.5 19.5q-21 0 -35.5 -19.5t-20 -50.5t-7.5 -52.5t-2 -41.5z" />
<glyph unicode="&#xab;" horiz-adv-x="886" d="M53 676l269 479l155 -80l-209 -399l209 -387l-155 -88zM408 676l266 479l157 -80l-210 -399l210 -387l-157 -88z" />
<glyph unicode="&#xac;" d="M43 610v226h920v-607h-226v381h-694z" />
<glyph unicode="&#xad;" horiz-adv-x="651" d="M70 541v272h512v-272h-512z" />
<glyph unicode="&#xae;" horiz-adv-x="1699" d="M45 776q0 162 64 309t172 253t257.5 168.5t313.5 62.5t312.5 -62.5t256 -168.5t171 -253t63.5 -309q0 -218 -107.5 -402.5t-292.5 -291.5t-403 -107q-219 0 -405 107t-294 291.5t-108 402.5zM205 776q0 -176 85.5 -325.5t234.5 -237t327 -88.5q175 1 323 88.5t234 237 t86 325.5q0 174 -86 322t-234 234.5t-323 86.5q-133 0 -253.5 -51t-206.5 -137.5t-136.5 -205t-50.5 -249.5zM520 342v870h420q167 0 236 -43q102 -67 102 -225q0 -115 -59.5 -170t-178.5 -63l211 -369h-198l-193 369h-170v-369h-170zM690 840h254q80 -2 122 25.5t42 105.5 q0 27 -8.5 47.5t-27.5 32t-35.5 18.5t-45.5 10t-44.5 3.5t-45.5 0.5h-211v-243z" />
<glyph unicode="&#xaf;" horiz-adv-x="614" d="M-47 1364v152h709v-152h-709z" />
<glyph unicode="&#xb0;" horiz-adv-x="819" d="M102 1262q-1 126 89.5 216.5t218.5 90.5q126 0 216.5 -90.5t90.5 -216.5q0 -127 -90.5 -217.5t-216.5 -90.5q-128 0 -218 90t-90 218zM264 1262q0 -61 43 -103.5t105 -42.5q60 0 101.5 42.5t41.5 103.5q0 60 -42 102.5t-103 42.5q-60 0 -103.5 -42.5t-42.5 -102.5z" />
<glyph unicode="&#xb1;" d="M43 0v225h920v-225h-920zM43 582v225h346v274h225v-274h349v-225h-349v-275h-225v275h-346z" />
<glyph unicode="&#xb2;" horiz-adv-x="602" d="M35 627l225 372q83 142 107 208q22 62 22 108q0 43 -17.5 74.5t-56.5 31.5q-73 0 -73 -141l2 -59h-195l-4 51q0 66 12 115t41 89.5t83.5 61.5t133.5 21q275 0 275 -238q0 -65 -20.5 -121.5t-61.5 -130.5l-174 -274h239v-168h-538z" />
<glyph unicode="&#xb3;" horiz-adv-x="602" d="M12 870h199v-26q0 -36 17.5 -62t50.5 -26q27 0 44 14t24 40t9 45.5t2 47.5q0 73 -32 100.5t-111 24.5v156q80 0 112.5 24.5t32.5 96.5q0 100 -61 100t-61 -102v-19h-185q-3 129 55 202t187 73q124 0 192 -65.5t68 -176.5q0 -170 -123 -215v-4q78 -18 116 -77t38 -136 q0 -128 -80.5 -200.5t-222.5 -72.5q-131 0 -204 70t-67 188z" />
<glyph unicode="&#xb4;" horiz-adv-x="614" d="M104 1249l197 295l209 -94l-264 -283z" />
<glyph unicode="&#xb5;" horiz-adv-x="866" d="M70 -510v1544h288v-645q0 -119 78 -119q22 0 37 11.5t22.5 27t11 41t3.5 42t-1 43t-1 32.5v567h289v-667q0 -142 -5 -184q-21 -176 -146 -199q-20 -4 -44 -4q-81 0 -145 51t-95 129h-4v-670h-288z" />
<glyph unicode="&#xb6;" horiz-adv-x="1228" d="M57 1180q0 198 103.5 281t306.5 83h620v-241h-86v-1532h-241v1532h-139v-1532h-242v1058q-155 0 -238.5 96t-83.5 255z" />
<glyph unicode="&#xb7;" horiz-adv-x="501" d="M55 524q0 80 57 137.5t138 57.5t137.5 -57.5t56.5 -137.5t-56.5 -137t-137.5 -57t-138 57t-57 137z" />
<glyph unicode="&#xb8;" horiz-adv-x="614" d="M135 -381l160 283l184 -74l-215 -274z" />
<glyph unicode="&#xb9;" horiz-adv-x="602" d="M117 1384v160h305v-917h-209v757h-96z" />
<glyph unicode="&#xba;" horiz-adv-x="614" d="M51 1245q0 65 12.5 119t40 102t79.5 75.5t124 27.5t124 -27.5t79.5 -75.5t40 -102t12.5 -119q0 -63 -12.5 -116.5t-40 -101.5t-79.5 -75.5t-124 -27.5t-124 27.5t-79.5 75.5t-40 101.5t-12.5 116.5zM66 709v102h481v-102h-481zM240 1245q0 -19 2 -40.5t7.5 -53t20.5 -52 t37 -20.5t37 20.5t21 52t8 53.5t2 40q0 168 -68 168q-67 0 -67 -168z" />
<glyph unicode="&#xbb;" horiz-adv-x="886" d="M55 289l209 387l-209 399l156 80l268 -479l-268 -475zM410 289l208 387l-208 399l155 80l269 -479l-269 -475z" />
<glyph unicode="&#xbc;" horiz-adv-x="1505" d="M109 1384v160h305v-917h-209v757h-96zM264 0l737 1544h177l-736 -1544h-178zM827 217v143l267 558h239v-537h78v-164h-78v-217h-209v217h-297zM977 381h147v336h-4z" />
<glyph unicode="&#xbd;" horiz-adv-x="1505" d="M115 1384v160h305v-917h-209v757h-96zM209 0l737 1544h176l-735 -1544h-178zM846 0l225 373q81 140 105 202q24 65 24 113q0 44 -17.5 75.5t-56.5 31.5q-73 0 -73 -142l2 -59h-195l-4 51q0 66 12 115t41 89.5t83.5 61.5t133.5 21q275 0 275 -238q0 -65 -20.5 -121.5 t-61.5 -130.5l-174 -274h239v-168h-538z" />
<glyph unicode="&#xbe;" horiz-adv-x="1505" d="M59 870h199v-26q0 -36 17.5 -62t50.5 -26q80 0 80 147q0 73 -32.5 100.5t-111.5 24.5v156q80 0 113 24.5t33 96.5q0 40 -14 70t-48 30q-61 0 -61 -102v-19h-185q-3 129 55 202t187 73q124 0 192 -65.5t68 -176.5q0 -170 -123 -215v-4q78 -18 116 -77t38 -136 q0 -128 -80.5 -200.5t-222.5 -72.5q-131 0 -204 70t-67 188zM352 0l738 1544h176l-736 -1544h-178zM864 217v143l266 558h240v-537h78v-164h-78v-217h-209v217h-297zM1014 377h147v332h-4z" />
<glyph unicode="&#xbf;" horiz-adv-x="929" d="M53 -74q0 66 14 131t43 125.5t78.5 105.5t114.5 62v201h305v-381q-27 6 -51 6q-50 0 -86 -22t-55.5 -59t-28 -77.5t-8.5 -85.5q0 -30 4 -60t14.5 -64t33.5 -55t56 -21q52 0 76.5 45t24.5 102v37h289q8 -203 -93.5 -327t-300.5 -124t-314.5 129.5t-115.5 331.5zM262 866 q0 79 57.5 137t135.5 58q81 0 138.5 -57.5t57.5 -137.5t-57.5 -137t-138.5 -57q-78 0 -135.5 57.5t-57.5 136.5z" />
<glyph unicode="&#xc0;" horiz-adv-x="1081" d="M16 0l359 1544h321l371 -1544h-326l-57 260h-309l-56 -260h-303zM338 1960l209 94l196 -295l-141 -82zM424 502h215l-78 411l-35 234h-4l-33 -234z" />
<glyph unicode="&#xc1;" horiz-adv-x="1081" d="M16 0l359 1544h321l371 -1544h-326l-57 260h-309l-56 -260h-303zM338 1759l197 295l208 -94l-264 -283zM424 502h215l-78 411l-35 234h-4l-33 -234z" />
<glyph unicode="&#xc2;" horiz-adv-x="1081" d="M16 0l359 1544h321l371 -1544h-326l-57 260h-309l-56 -260h-303zM246 1810l293 232l299 -248l-125 -127l-174 143l-181 -143zM424 502h215l-78 411l-35 234h-4l-33 -234z" />
<glyph unicode="&#xc3;" horiz-adv-x="1081" d="M16 0l359 1544h321l371 -1544h-326l-57 260h-309l-56 -260h-303zM209 1749q4 44 9.5 76t19 72t33 64.5t53 42t77.5 17.5q46 0 91.5 -19.5t84.5 -38.5t70 -19q67 0 74 81l153 -10q-6 -38 -11.5 -63.5t-16 -61t-24.5 -58.5t-34.5 -45t-50.5 -33t-67 -11q-60 0 -160 45 q-6 2 -20.5 8.5t-22 9.5t-19.5 6t-24 3q-55 0 -66 -66h-149zM424 502h215l-78 411l-35 234h-4l-33 -234z" />
<glyph unicode="&#xc4;" horiz-adv-x="1081" d="M16 0l359 1544h321l371 -1544h-326l-57 260h-309l-56 -260h-303zM176 1860q0 65 45 110t111 45q62 0 105.5 -45.5t43.5 -109.5q0 -62 -45 -106t-108 -44q-62 0 -107 44.5t-45 105.5zM424 502h215l-78 411l-35 234h-4l-33 -234zM602 1860q0 65 45 110t111 45 q62 0 105.5 -45.5t43.5 -109.5q0 -62 -45 -106t-108 -44q-62 0 -107 44.5t-45 105.5z" />
<glyph unicode="&#xc5;" horiz-adv-x="1081" d="M16 0l359 1544h321l371 -1544h-326l-57 260h-309l-56 -260h-303zM283 1858q0 93 65.5 157t159.5 64q91 0 154 -67t63 -159q0 -90 -64.5 -154.5t-154.5 -64.5q-92 0 -157.5 65t-65.5 159zM418 1855q0 -37 25.5 -61.5t62.5 -24.5q34 0 59 25t25 59q0 37 -24.5 64t-59.5 27 q-37 0 -62.5 -25.5t-25.5 -63.5zM424 502h215l-78 411l-35 234h-4l-33 -234z" />
<glyph unicode="&#xc6;" horiz-adv-x="1380" d="M16 0l351 1544h628l66 -287h-305l80 -319h305l69 -287h-301l86 -364h297l72 -287h-619l-57 258h-321l-48 -258h-303zM418 500h219l-64 293l-51 352h-4z" />
<glyph unicode="&#xc7;" horiz-adv-x="925" d="M53 786q0 115 29 227.5t87.5 211.5t137.5 174.5t187 119.5t229 44q74 0 156 -29v-281q-66 17 -115 17q-97 0 -172.5 -41.5t-121 -111t-68.5 -153.5t-23 -176q0 -71 14 -141.5t44.5 -137.5t74.5 -118.5t108.5 -83t141.5 -31.5q42 0 117 23v-289q-65 -26 -142 -26 q-128 0 -239.5 44.5t-192 121t-138 178.5t-86 218.5t-28.5 239.5zM291 -381l160 283l184 -74l-215 -274z" />
<glyph unicode="&#xc8;" horiz-adv-x="802" d="M109 0v1544h614v-287h-309v-335h272v-287h-272v-348h313v-287h-618zM199 1960l209 94l196 -295l-141 -82z" />
<glyph unicode="&#xc9;" horiz-adv-x="802" d="M109 0v1544h614v-287h-309v-335h272v-287h-272v-348h313v-287h-618zM199 1759l196 295l209 -94l-264 -283z" />
<glyph unicode="&#xca;" horiz-adv-x="802" d="M106 1810l293 232l299 -248l-125 -127l-174 143l-180 -143zM109 0v1544h614v-287h-309v-335h272v-287h-272v-348h313v-287h-618z" />
<glyph unicode="&#xcb;" horiz-adv-x="802" d="M37 1860q0 65 45 110t111 45q62 0 105.5 -45.5t43.5 -109.5q0 -61 -45.5 -105.5t-108.5 -44.5q-62 0 -106.5 44.5t-44.5 105.5zM109 0v1544h614v-287h-309v-335h272v-287h-272v-348h313v-287h-618zM463 1860q0 65 44.5 110t110.5 45q63 0 106.5 -46t43.5 -109 q0 -61 -45.5 -105.5t-108.5 -44.5q-62 0 -106.5 44.5t-44.5 105.5z" />
<glyph unicode="&#xcc;" horiz-adv-x="522" d="M59 1960l209 94l197 -295l-141 -82zM109 0v1544h305v-1544h-305z" />
<glyph unicode="&#xcd;" horiz-adv-x="522" d="M59 1759l197 295l209 -94l-264 -283zM109 0v1544h305v-1544h-305z" />
<glyph unicode="&#xce;" horiz-adv-x="522" d="M-33 1810l293 232l299 -248l-125 -127l-174 143l-180 -143zM109 0v1544h305v-1544h-305z" />
<glyph unicode="&#xcf;" horiz-adv-x="522" d="M-102 1860q0 65 44.5 110t110.5 45q63 0 106.5 -46t43.5 -109q0 -61 -45.5 -105.5t-108.5 -44.5q-62 0 -106.5 44.5t-44.5 105.5zM109 0v1544h305v-1544h-305zM324 1860q0 65 44.5 110t110.5 45q63 0 106.5 -46t43.5 -109q0 -61 -45.5 -105.5t-108.5 -44.5 q-62 0 -106.5 44.5t-44.5 105.5z" />
<glyph unicode="&#xd0;" horiz-adv-x="1085" d="M0 635v285h109v624h231h13q330 16 508 -194q171 -201 171 -590q0 -136 -21 -248.5t-69.5 -208.5t-123 -162.5t-185.5 -103.5t-252 -37h-272v635h-109zM414 274q70 -3 126.5 28.5t90.5 82.5t56.5 119t31 131.5t8.5 126.5q0 65 -8 129t-30 134.5t-55.5 123t-90.5 87 t-129 34.5v-348h108v-287h-108v-361z" />
<glyph unicode="&#xd1;" horiz-adv-x="1173" d="M109 0v1544h292l381 -932l4 4q-24 99 -24 234v694h305v-1544h-289l-377 932l-4 -4l15 -156l2 -63v-709h-305zM256 1749q4 44 9.5 76.5t19 72t33 64t53.5 42t78 17.5q46 0 91.5 -19.5t84 -38.5t69.5 -19q67 0 74 81l154 -10q-8 -46 -14.5 -76.5t-22 -71.5t-35.5 -65 t-54.5 -41.5t-78.5 -17.5q-60 0 -160 45q-6 2 -20.5 8.5t-22 9.5t-19.5 6t-24 3q-54 0 -65 -66h-150z" />
<glyph unicode="&#xd2;" horiz-adv-x="1191" d="M53 772q0 169 30.5 305t82 226.5t122 151.5t147.5 87.5t161 26.5t161 -26.5t147.5 -87.5t122 -151.5t82 -226.5t30.5 -305t-30.5 -305t-82 -226.5t-122 -151.5t-147.5 -87.5t-161 -26.5t-161 26.5t-147.5 87.5t-122 151.5t-82 226.5t-30.5 305zM369 1960l209 94l196 -295 l-141 -82zM379 772q0 -41 2 -82t8.5 -105t22 -117t38 -103t60.5 -78.5t86 -28.5t86 28.5t60.5 78.5t38 103t22 117t8.5 105t2 82q0 44 -2 86.5t-8.5 106.5t-22 116.5t-38 101t-60.5 76t-86 27.5t-86 -27.5t-60.5 -76t-38 -101t-22 -116.5t-8.5 -106.5t-2 -86.5z" />
<glyph unicode="&#xd3;" horiz-adv-x="1191" d="M53 772q0 169 30.5 305t82 226.5t122 151.5t147.5 87.5t161 26.5t161 -26.5t147.5 -87.5t122 -151.5t82 -226.5t30.5 -305t-30.5 -305t-82 -226.5t-122 -151.5t-147.5 -87.5t-161 -26.5t-161 26.5t-147.5 87.5t-122 151.5t-82 226.5t-30.5 305zM379 772q0 -41 2 -82 t8.5 -105t22 -117t38 -103t60.5 -78.5t86 -28.5t86 28.5t60.5 78.5t38 103t22 117t8.5 105t2 82q0 44 -2 86.5t-8.5 106.5t-22 116.5t-38 101t-60.5 76t-86 27.5t-86 -27.5t-60.5 -76t-38 -101t-22 -116.5t-8.5 -106.5t-2 -86.5zM393 1759l197 295l209 -94l-264 -283z" />
<glyph unicode="&#xd4;" horiz-adv-x="1191" d="M53 772q0 169 30.5 305t82 226.5t122 151.5t147.5 87.5t161 26.5t161 -26.5t147.5 -87.5t122 -151.5t82 -226.5t30.5 -305t-30.5 -305t-82 -226.5t-122 -151.5t-147.5 -87.5t-161 -26.5t-161 26.5t-147.5 87.5t-122 151.5t-82 226.5t-30.5 305zM317 1810l293 232 l299 -248l-125 -127l-174 143l-180 -143zM379 772q0 -41 2 -82t8.5 -105t22 -117t38 -103t60.5 -78.5t86 -28.5t86 28.5t60.5 78.5t38 103t22 117t8.5 105t2 82q0 44 -2 86.5t-8.5 106.5t-22 116.5t-38 101t-60.5 76t-86 27.5t-86 -27.5t-60.5 -76t-38 -101t-22 -116.5 t-8.5 -106.5t-2 -86.5z" />
<glyph unicode="&#xd5;" horiz-adv-x="1191" d="M53 772q0 169 30.5 305t82 226.5t122 151.5t147.5 87.5t161 26.5t161 -26.5t147.5 -87.5t122 -151.5t82 -226.5t30.5 -305t-30.5 -305t-82 -226.5t-122 -151.5t-147.5 -87.5t-161 -26.5t-161 26.5t-147.5 87.5t-122 151.5t-82 226.5t-30.5 305zM264 1749q4 44 9.5 76.5 t19 72t33 64t53.5 42t78 17.5q46 0 91.5 -19.5t84 -38.5t69.5 -19q67 0 74 81l154 -10q-8 -46 -14.5 -76.5t-22 -71.5t-35.5 -65t-54.5 -41.5t-78.5 -17.5q-60 0 -160 45q-6 2 -20.5 8.5t-22 9.5t-19.5 6t-24 3q-54 0 -65 -66h-150zM379 772q0 -41 2 -82t8.5 -105t22 -117 t38 -103t60.5 -78.5t86 -28.5t86 28.5t60.5 78.5t38 103t22 117t8.5 105t2 82q0 44 -2 86.5t-8.5 106.5t-22 116.5t-38 101t-60.5 76t-86 27.5t-86 -27.5t-60.5 -76t-38 -101t-22 -116.5t-8.5 -106.5t-2 -86.5z" />
<glyph unicode="&#xd6;" horiz-adv-x="1191" d="M53 772q0 169 30.5 305t82 226.5t122 151.5t147.5 87.5t161 26.5t161 -26.5t147.5 -87.5t122 -151.5t82 -226.5t30.5 -305t-30.5 -305t-82 -226.5t-122 -151.5t-147.5 -87.5t-161 -26.5t-161 26.5t-147.5 87.5t-122 151.5t-82 226.5t-30.5 305zM231 1860q0 65 45 110 t111 45q63 0 106.5 -46t43.5 -109q0 -61 -45.5 -105.5t-108.5 -44.5q-62 0 -107 44.5t-45 105.5zM379 772q0 -41 2 -82t8.5 -105t22 -117t38 -103t60.5 -78.5t86 -28.5t86 28.5t60.5 78.5t38 103t22 117t8.5 105t2 82q0 44 -2 86.5t-8.5 106.5t-22 116.5t-38 101t-60.5 76 t-86 27.5t-86 -27.5t-60.5 -76t-38 -101t-22 -116.5t-8.5 -106.5t-2 -86.5zM657 1860q0 65 45 110t111 45q63 0 106.5 -46t43.5 -109q0 -61 -45.5 -105.5t-108.5 -44.5q-62 0 -107 44.5t-45 105.5z" />
<glyph unicode="&#xd7;" d="M43 229l295 295l-295 295l160 160l295 -295l305 305l160 -160l-306 -305l306 -305l-160 -160l-305 306l-295 -295z" />
<glyph unicode="&#xd8;" horiz-adv-x="1191" d="M53 776q0 114 15.5 220t55 212.5t100 184.5t159 127t223.5 49q91 0 178 -37t152 -102l82 126l117 -69l-109 -174q113 -192 113 -547q0 -133 -19 -246t-51.5 -192.5t-77 -142.5t-92.5 -101.5t-102.5 -64t-102.5 -35t-96 -9.5q-176 0 -332 129l-76 -118l-118 75l102 160 q-121 198 -121 555zM379 782l12 -219h4l363 594q-59 129 -160 129q-50 0 -88.5 -27t-61.5 -75.5t-38 -98.5t-21 -114t-8 -104t-2 -85zM444 375q25 -51 66 -84t92 -33q45 0 81 26t57.5 70.5t37 94.5t22.5 108t10 100.5t3 81.5l-6 219h-4z" />
<glyph unicode="&#xd9;" horiz-adv-x="1114" d="M100 397v1147h306v-999v-27q0 -25 -0.5 -51t3 -52t8 -50t16 -44.5t27 -36t40.5 -24t57 -8.5q25 0 45 4.5t34.5 10.5t26 19t19 22.5t12.5 29t8 31t4.5 36t2 36t0.5 38.5v1065h305v-1126q0 -44 -2 -77t-12 -82t-28 -85t-52 -75.5t-81.5 -65t-120 -42t-163.5 -16.5 q-219 0 -337 105t-118 317zM330 1960l209 94l196 -295l-141 -82z" />
<glyph unicode="&#xda;" horiz-adv-x="1114" d="M100 397v1147h306v-999v-27q0 -25 -0.5 -51t3 -52t8 -50t16 -44.5t27 -36t40.5 -24t57 -8.5q25 0 45 4.5t34.5 10.5t26 19t19 22.5t12.5 29t8 31t4.5 36t2 36t0.5 38.5v1065h305v-1126q0 -44 -2 -77t-12 -82t-28 -85t-52 -75.5t-81.5 -65t-120 -42t-163.5 -16.5 q-219 0 -337 105t-118 317zM379 1759l196 295l209 -94l-264 -283z" />
<glyph unicode="&#xdb;" horiz-adv-x="1114" d="M100 397v1147h306v-999v-27q0 -25 -0.5 -51t3 -52t8 -50t16 -44.5t27 -36t40.5 -24t57 -8.5q25 0 45 4.5t34.5 10.5t26 19t19 22.5t12.5 29t8 31t4.5 36t2 36t0.5 38.5v1065h305v-1126q0 -44 -2 -77t-12 -82t-28 -85t-52 -75.5t-81.5 -65t-120 -42t-163.5 -16.5 q-219 0 -337 105t-118 317zM262 1810l293 232l299 -248l-125 -127l-174 143l-180 -143z" />
<glyph unicode="&#xdc;" horiz-adv-x="1114" d="M100 397v1147h306v-999v-27q0 -25 -0.5 -51t3 -52t8 -50t16 -44.5t27 -36t40.5 -24t57 -8.5q25 0 45 4.5t34.5 10.5t26 19t19 22.5t12.5 29t8 31t4.5 36t2 36t0.5 38.5v1065h305v-1126q0 -44 -2 -77t-12 -82t-28 -85t-52 -75.5t-81.5 -65t-120 -42t-163.5 -16.5 q-219 0 -337 105t-118 317zM217 1860q0 65 45 110t111 45q62 0 105.5 -45.5t43.5 -109.5q0 -62 -45 -106t-108 -44q-62 0 -107 44.5t-45 105.5zM643 1860q0 65 45 110t111 45q62 0 105.5 -45.5t43.5 -109.5q0 -62 -45 -106t-108 -44q-62 0 -107 44.5t-45 105.5z" />
<glyph unicode="&#xdd;" horiz-adv-x="1052" d="M8 1544h336l160 -420l22 -75h4l35 114l137 381h342l-360 -805v-739h-305v739zM348 1759l197 295l209 -94l-265 -283z" />
<glyph unicode="&#xde;" horiz-adv-x="997" d="M109 0v1544h305v-287h17q20 -1 48 1t63 -3l73.5 -10.5t78.5 -22t77 -37.5t69.5 -57t57 -80t38.5 -107.5t14 -139.5q0 -214 -127 -334.5t-342 -120.5l-67 4v-350h-305zM414 598q115 -5 173 43.5t58 163.5q0 201 -174 201h-57v-408z" />
<glyph unicode="&#xdf;" horiz-adv-x="978" d="M39 797v237h106v107v37q-3 32 -0.5 70t4 79t12.5 82.5t26.5 80t45 72t67.5 58t95 39t127 14.5q102 0 176.5 -34.5t115.5 -96t60 -133.5t19 -158q0 -55 -6 -99.5t-22 -91t-49 -81t-81 -53.5q191 -103 191 -420q0 -65 -4.5 -120t-16.5 -117.5t-36.5 -110.5t-60 -88.5 t-91.5 -62t-127 -21.5q-28 0 -90 12v260q21 -1 37.5 6t28 19.5t20 29.5t13 36.5t8 40.5t4 42t1.5 40.5t0 35.5v16q0 35 -1 59t-7 66.5t-16.5 69.5t-33 49t-54.5 23v260q22 2 38 9t25.5 21t15.5 25t8 32.5t2.5 33t0.5 35.5v12q0 194 -82 194q-19 0 -33 -8t-22 -23.5 t-13 -31.5t-6 -39t-1.5 -38.5t0.5 -37.5t1 -29v-1206h-289v797h-106z" />
<glyph unicode="&#xe0;" horiz-adv-x="886" d="M53 518q0 63 5 125t23 140t46.5 135.5t81 97t121.5 39.5t118.5 -40.5t75.5 -107.5h4v127h289v-1034h-289v117h-4q-68 -137 -190 -137q-66 0 -118 40.5t-82 100.5t-49 136.5t-25.5 140t-6.5 120.5zM242 1450l209 94l196 -295l-141 -82zM342 522q0 -28 1 -55t7.5 -70.5 t17 -74.5t31.5 -54.5t50 -23.5q32 0 54 34t31 86.5t12 89.5t3 68q0 33 -3 69.5t-12 88.5t-32.5 85.5t-57.5 33.5q-33 0 -56 -33t-31.5 -85.5t-11.5 -88.5t-3 -70z" />
<glyph unicode="&#xe1;" horiz-adv-x="886" d="M53 518q0 63 5 125t23 140t46.5 135.5t81 97t121.5 39.5t118.5 -40.5t75.5 -107.5h4v127h289v-1034h-289v117h-4q-68 -137 -190 -137q-66 0 -118 40.5t-82 100.5t-49 136.5t-25.5 140t-6.5 120.5zM242 1249l196 295l209 -94l-264 -283zM342 522q0 -28 1 -55t7.5 -70.5 t17 -74.5t31.5 -54.5t50 -23.5q32 0 54 34t31 86.5t12 89.5t3 68q0 33 -3 69.5t-12 88.5t-32.5 85.5t-57.5 33.5q-33 0 -56 -33t-31.5 -85.5t-11.5 -88.5t-3 -70z" />
<glyph unicode="&#xe2;" horiz-adv-x="886" d="M53 518q0 63 5 125t23 140t46.5 135.5t81 97t121.5 39.5t118.5 -40.5t75.5 -107.5h4v127h289v-1034h-289v117h-4q-68 -137 -190 -137q-66 0 -118 40.5t-82 100.5t-49 136.5t-25.5 140t-6.5 120.5zM150 1300l292 232l299 -248l-125 -127l-174 143l-180 -143zM342 522 q0 -28 1 -55t7.5 -70.5t17 -74.5t31.5 -54.5t50 -23.5q32 0 54 34t31 86.5t12 89.5t3 68q0 33 -3 69.5t-12 88.5t-32.5 85.5t-57.5 33.5q-33 0 -56 -33t-31.5 -85.5t-11.5 -88.5t-3 -70z" />
<glyph unicode="&#xe3;" horiz-adv-x="886" d="M53 518q0 63 5 125t23 140t46.5 135.5t81 97t121.5 39.5t118.5 -40.5t75.5 -107.5h4v127h289v-1034h-289v117h-4q-68 -137 -190 -137q-66 0 -118 40.5t-82 100.5t-49 136.5t-25.5 140t-6.5 120.5zM113 1239q4 44 9.5 76t19 72t33 64.5t53 42t77.5 17.5q46 0 91.5 -19.5 t84.5 -38.5t70 -19q67 0 74 82l153 -11q-8 -46 -14.5 -76.5t-22 -71.5t-35.5 -65t-54.5 -41.5t-78.5 -17.5q-59 0 -159 45q-6 2 -20.5 8.5t-22 9.5t-19.5 6t-24 3q-55 0 -66 -66h-149zM342 522q0 -28 1 -55t7.5 -70.5t17 -74.5t31.5 -54.5t50 -23.5q32 0 54 34t31 86.5 t12 89.5t3 68q0 33 -3 69.5t-12 88.5t-32.5 85.5t-57.5 33.5q-33 0 -56 -33t-31.5 -85.5t-11.5 -88.5t-3 -70z" />
<glyph unicode="&#xe4;" horiz-adv-x="886" d="M53 518q0 63 5 125t23 140t46.5 135.5t81 97t121.5 39.5t118.5 -40.5t75.5 -107.5h4v127h289v-1034h-289v117h-4q-68 -137 -190 -137q-66 0 -118 40.5t-82 100.5t-49 136.5t-25.5 140t-6.5 120.5zM80 1350q0 65 45 110t111 45q62 0 105.5 -45.5t43.5 -109.5 q0 -61 -45.5 -105.5t-108.5 -44.5q-62 0 -106.5 44.5t-44.5 105.5zM342 522q0 -28 1 -55t7.5 -70.5t17 -74.5t31.5 -54.5t50 -23.5q32 0 54 34t31 86.5t12 89.5t3 68q0 33 -3 69.5t-12 88.5t-32.5 85.5t-57.5 33.5q-33 0 -56 -33t-31.5 -85.5t-11.5 -88.5t-3 -70zM506 1350 q0 65 45 110t111 45q62 0 105.5 -45.5t43.5 -109.5q0 -61 -45.5 -105.5t-108.5 -44.5q-62 0 -106.5 44.5t-44.5 105.5z" />
<glyph unicode="&#xe5;" horiz-adv-x="886" d="M53 518q0 63 5 125t23 140t46.5 135.5t81 97t121.5 39.5t118.5 -40.5t75.5 -107.5h4v127h289v-1034h-289v117h-4q-68 -137 -190 -137q-66 0 -118 40.5t-82 100.5t-49 136.5t-25.5 140t-6.5 120.5zM223 1348q0 93 66 157t160 64q91 0 154 -67t63 -159q0 -89 -65 -154 t-155 -65q-92 0 -157.5 65t-65.5 159zM342 522q0 -28 1 -55t7.5 -70.5t17 -74.5t31.5 -54.5t50 -23.5q32 0 54 34t31 86.5t12 89.5t3 68q0 33 -3 69.5t-12 88.5t-32.5 85.5t-57.5 33.5q-33 0 -56 -33t-31.5 -85.5t-11.5 -88.5t-3 -70zM358 1346q0 -37 25.5 -61.5t62.5 -24.5 q34 0 59 24.5t25 58.5q0 37 -24.5 64t-59.5 27q-37 0 -62.5 -25t-25.5 -63z" />
<glyph unicode="&#xe6;" horiz-adv-x="1310" d="M53 309q0 136 86.5 224t222.5 88q105 0 154 -37q1 45 -1.5 75.5t-12 62.5t-27.5 51t-50.5 31.5t-78.5 12.5q-90 0 -203 -53v248q121 43 236 43q211 0 285 -152q78 152 243 152q153 0 257 -132t93 -364l-6 -119h-456q3 -108 13 -149q24 -90 95 -90q92 0 92 118h246 q-20 -155 -99.5 -247t-228.5 -92q-169 0 -258 126q-59 -63 -121 -94.5t-143 -31.5q-154 0 -246 88.5t-92 240.5zM317 307q0 -46 30.5 -80t76.5 -34t78.5 32t32.5 78q0 44 -33 76.5t-76 32.5t-76 -31.5t-33 -73.5zM797 618h211v25q0 30 -4 59t-14.5 61t-32.5 51.5t-54 19.5 q-31 0 -53.5 -19t-33 -49.5t-15 -59t-4.5 -57.5v-31z" />
<glyph unicode="&#xe7;" horiz-adv-x="645" d="M53 510q0 81 13 156.5t43 147.5t75 124.5t114.5 84.5t156.5 32q70 0 143 -31v-254q-36 33 -84 33q-50 0 -86 -27.5t-53.5 -72t-25 -88.5t-7.5 -89q0 -49 6.5 -91.5t23 -87t52 -71t86.5 -26.5q42 0 88 31v-265q-76 -36 -166 -36q-81 0 -147 32.5t-108 85.5t-71 123.5 t-41 142.5t-12 146zM152 -381l159 283l185 -74l-215 -274z" />
<glyph unicode="&#xe8;" horiz-adv-x="847" d="M53 496q0 79 11.5 154t40 149.5t71.5 130.5t112 90.5t156 34.5q153 0 257.5 -132t93.5 -364l-7 -119h-456q3 -108 13 -149q24 -90 95 -90q92 0 92 118h246q-20 -155 -99 -247t-228 -92q-85 0 -153.5 29.5t-113.5 78.5t-75 116t-43 139.5t-13 152.5zM221 1450l209 94 l197 -295l-142 -82zM334 618h211v25q0 30 -4 59t-14.5 61t-32.5 51.5t-54 19.5q-31 0 -53.5 -19t-33 -49.5t-15 -59t-4.5 -57.5v-31z" />
<glyph unicode="&#xe9;" horiz-adv-x="847" d="M53 496q0 79 11.5 154t40 149.5t71.5 130.5t112 90.5t156 34.5q153 0 257.5 -132t93.5 -364l-7 -119h-456q3 -108 13 -149q24 -90 95 -90q92 0 92 118h246q-20 -155 -99 -247t-228 -92q-85 0 -153.5 29.5t-113.5 78.5t-75 116t-43 139.5t-13 152.5zM221 1249l197 295 l209 -94l-265 -283zM334 618h211v25q0 30 -4 59t-14.5 61t-32.5 51.5t-54 19.5q-31 0 -53.5 -19t-33 -49.5t-15 -59t-4.5 -57.5v-31z" />
<glyph unicode="&#xea;" horiz-adv-x="847" d="M53 496q0 79 11.5 154t40 149.5t71.5 130.5t112 90.5t156 34.5q153 0 257.5 -132t93.5 -364l-7 -119h-456q3 -108 13 -149q24 -90 95 -90q92 0 92 118h246q-20 -155 -99 -247t-228 -92q-85 0 -153.5 29.5t-113.5 78.5t-75 116t-43 139.5t-13 152.5zM129 1300l293 232 l299 -248l-125 -127l-174 143l-180 -143zM334 618h211v25q0 30 -4 59t-14.5 61t-32.5 51.5t-54 19.5q-31 0 -53.5 -19t-33 -49.5t-15 -59t-4.5 -57.5v-31z" />
<glyph unicode="&#xeb;" horiz-adv-x="847" d="M53 496q0 79 11.5 154t40 149.5t71.5 130.5t112 90.5t156 34.5q153 0 257.5 -132t93.5 -364l-7 -119h-456q3 -108 13 -149q24 -90 95 -90q92 0 92 118h246q-20 -155 -99 -247t-228 -92q-85 0 -153.5 29.5t-113.5 78.5t-75 116t-43 139.5t-13 152.5zM59 1350q0 65 45 110 t111 45q63 0 106.5 -46t43.5 -109q0 -61 -45.5 -105.5t-108.5 -44.5q-62 0 -107 44.5t-45 105.5zM334 618h211v25q0 30 -4 59t-14.5 61t-32.5 51.5t-54 19.5q-31 0 -53.5 -19t-33 -49.5t-15 -59t-4.5 -57.5v-31zM485 1350q0 65 45 110t111 45q63 0 106.5 -46t43.5 -109 q0 -61 -45.5 -105.5t-108.5 -44.5q-62 0 -107 44.5t-45 105.5z" />
<glyph unicode="&#xec;" horiz-adv-x="428" d="M12 1450l209 94l197 -295l-142 -82zM70 0v1034h288v-1034h-288z" />
<glyph unicode="&#xed;" horiz-adv-x="428" d="M12 1249l197 295l209 -94l-264 -283zM70 0v1034h288v-1034h-288z" />
<glyph unicode="&#xee;" horiz-adv-x="428" d="M-80 1300l293 232l299 -248l-125 -127l-174 143l-180 -143zM70 0v1034h288v-1034h-288z" />
<glyph unicode="&#xef;" horiz-adv-x="428" d="M-150 1350q0 65 45 110t111 45q63 0 106.5 -46t43.5 -109q0 -61 -45.5 -105.5t-108.5 -44.5q-62 0 -107 44.5t-45 105.5zM70 0v1034h288v-1034h-288zM276 1350q0 65 45 110t111 45q63 0 106.5 -46t43.5 -109q0 -61 -45.5 -105.5t-108.5 -44.5q-62 0 -107 44.5t-45 105.5z " />
<glyph unicode="&#xf0;" horiz-adv-x="892" d="M53 516q0 85 11 158t40 144t75 120t120.5 77.5t171.5 24.5q-6 10 -53 95t-82 135l-166 -90l-66 118l164 86q-61 104 -129 187l228 106q40 -50 122 -170l179 90l71 -118l-180 -90q281 -450 281 -873q-5 -83 -17 -151.5t-40 -143.5t-69 -126t-110 -84.5t-158 -33.5 q-90 0 -159.5 31t-112.5 82t-71 122.5t-39 145.5t-11 158zM342 516q0 -27 1 -52.5t7 -70t16 -76t31 -55.5t49 -24q35 0 58 33t32 86t12 88.5t3 70.5t-3 70.5t-12 89t-32 86.5t-58 33q-28 0 -49 -24.5t-31 -56t-16 -76t-7 -70t-1 -52.5z" />
<glyph unicode="&#xf1;" horiz-adv-x="868" d="M72 0v1034h288v-160h5q31 78 94.5 129.5t144.5 51.5q41 0 73 -12t52.5 -32.5t35 -48t20.5 -59.5t10.5 -66.5t3.5 -69t0 -66.5v-33v-668h-289v567q0 6 1 32.5t1 43t-3.5 42t-11 41t-22.5 27t-37 11.5q-78 0 -78 -119v-645h-288zM102 1239q4 44 9.5 76.5t19 72t33 64 t53.5 42t78 17.5q46 0 91.5 -19.5t84.5 -38.5t70 -19q66 0 73 82l154 -11q-8 -46 -14.5 -76.5t-22 -71.5t-35.5 -65t-54.5 -41.5t-78.5 -17.5q-60 0 -160 45q-6 2 -20.5 8.5t-22 9.5t-19.5 6t-24 3q-54 0 -65 -66h-150z" />
<glyph unicode="&#xf2;" horiz-adv-x="892" d="M53 516q0 84 11 158t39 145.5t71 122.5t112.5 82t159.5 31t159.5 -31t113 -82t71.5 -122.5t39 -145.5t11 -158t-11 -157.5t-39 -144.5t-71.5 -121.5t-113 -81.5t-159.5 -31t-159.5 31t-112.5 81.5t-71 121.5t-39 144.5t-11 157.5zM244 1450l209 94l196 -295l-141 -82z M342 516q0 -27 1 -52.5t7 -70t16 -76t31 -55.5t49 -24q35 0 58 33t32 86t12 88.5t3 70.5t-3 70.5t-12 89t-32 86.5t-58 33q-28 0 -49 -24.5t-31 -56t-16 -76t-7 -70t-1 -52.5z" />
<glyph unicode="&#xf3;" horiz-adv-x="892" d="M53 516q0 84 11 158t39 145.5t71 122.5t112.5 82t159.5 31t159.5 -31t113 -82t71.5 -122.5t39 -145.5t11 -158t-11 -157.5t-39 -144.5t-71.5 -121.5t-113 -81.5t-159.5 -31t-159.5 31t-112.5 81.5t-71 121.5t-39 144.5t-11 157.5zM244 1249l196 295l209 -94l-264 -283z M342 516q0 -27 1 -52.5t7 -70t16 -76t31 -55.5t49 -24q35 0 58 33t32 86t12 88.5t3 70.5t-3 70.5t-12 89t-32 86.5t-58 33q-28 0 -49 -24.5t-31 -56t-16 -76t-7 -70t-1 -52.5z" />
<glyph unicode="&#xf4;" horiz-adv-x="892" d="M53 516q0 84 11 158t39 145.5t71 122.5t112.5 82t159.5 31t159.5 -31t113 -82t71.5 -122.5t39 -145.5t11 -158t-11 -157.5t-39 -144.5t-71.5 -121.5t-113 -81.5t-159.5 -31t-159.5 31t-112.5 81.5t-71 121.5t-39 144.5t-11 157.5zM152 1300l292 232l299 -248l-125 -127 l-174 143l-180 -143zM342 516q0 -27 1 -52.5t7 -70t16 -76t31 -55.5t49 -24q35 0 58 33t32 86t12 88.5t3 70.5t-3 70.5t-12 89t-32 86.5t-58 33q-28 0 -49 -24.5t-31 -56t-16 -76t-7 -70t-1 -52.5z" />
<glyph unicode="&#xf5;" horiz-adv-x="892" d="M53 516q0 84 11 158t39 145.5t71 122.5t112.5 82t159.5 31t159.5 -31t113 -82t71.5 -122.5t39 -145.5t11 -158t-11 -157.5t-39 -144.5t-71.5 -121.5t-113 -81.5t-159.5 -31t-159.5 31t-112.5 81.5t-71 121.5t-39 144.5t-11 157.5zM115 1239q4 44 9.5 76t19 72t33 64.5 t53 42t77.5 17.5q46 0 91.5 -19.5t84.5 -38.5t70 -19q67 0 74 82l153 -11q-8 -46 -14.5 -76.5t-22 -71.5t-35.5 -65t-54.5 -41.5t-78.5 -17.5q-59 0 -159 45q-6 2 -20.5 8.5t-22 9.5t-19.5 6t-24 3q-55 0 -66 -66h-149zM342 516q0 -27 1 -52.5t7 -70t16 -76t31 -55.5t49 -24 q35 0 58 33t32 86t12 88.5t3 70.5t-3 70.5t-12 89t-32 86.5t-58 33q-28 0 -49 -24.5t-31 -56t-16 -76t-7 -70t-1 -52.5z" />
<glyph unicode="&#xf6;" horiz-adv-x="892" d="M53 516q0 84 11 158t39 145.5t71 122.5t112.5 82t159.5 31t159.5 -31t113 -82t71.5 -122.5t39 -145.5t11 -158t-11 -157.5t-39 -144.5t-71.5 -121.5t-113 -81.5t-159.5 -31t-159.5 31t-112.5 81.5t-71 121.5t-39 144.5t-11 157.5zM82 1350q0 65 45 110t111 45 q62 0 105.5 -45.5t43.5 -109.5q0 -61 -45.5 -105.5t-108.5 -44.5q-62 0 -106.5 44.5t-44.5 105.5zM342 516q0 -27 1 -52.5t7 -70t16 -76t31 -55.5t49 -24q35 0 58 33t32 86t12 88.5t3 70.5t-3 70.5t-12 89t-32 86.5t-58 33q-28 0 -49 -24.5t-31 -56t-16 -76t-7 -70t-1 -52.5 zM508 1350q0 65 45 110t111 45q62 0 105.5 -45.5t43.5 -109.5q0 -61 -45.5 -105.5t-108.5 -44.5q-62 0 -106.5 44.5t-44.5 105.5z" />
<glyph unicode="&#xf7;" d="M43 412v225h920v-225h-920zM371 27v235h260v-235h-260zM371 786v236h260v-236h-260z" />
<glyph unicode="&#xf8;" horiz-adv-x="892" d="M53 526q0 76 11.5 147t40.5 141.5t72 123t112 85t155 32.5q138 0 220 -68l55 90l104 -65l-73 -119q90 -160 90 -377q0 -80 -11.5 -153t-39.5 -144t-71 -123t-111 -84t-154 -32q-128 0 -228 73l-55 -90l-107 70l74 123q-84 151 -84 370zM342 522q0 -27 1.5 -54.5t8 -71 t17 -76t32 -56.5t50.5 -24q32 0 54 33.5t31 85.5t12 88t3 67q0 27 -1.5 54.5t-8 71t-17 75.5t-32 56t-50.5 24q-33 0 -55 -33t-30.5 -85t-11.5 -87.5t-3 -67.5z" />
<glyph unicode="&#xf9;" horiz-adv-x="866" d="M72 414v620h288v-567q0 -7 -1 -35t-1 -47t3.5 -47t10.5 -45t23 -30t39 -13q21 0 35.5 10.5t21.5 23.5t10.5 36.5t4 36t0.5 36.5v10l2 631h287v-659q0 -187 -91.5 -291t-277.5 -104q-68 0 -122.5 14.5t-91 38t-63.5 59.5t-41.5 71.5t-22.5 82.5t-10.5 84t-2.5 84z M231 1450l209 94l197 -295l-141 -82z" />
<glyph unicode="&#xfa;" horiz-adv-x="866" d="M72 414v620h288v-567q0 -7 -1 -35t-1 -47t3.5 -47t10.5 -45t23 -30t39 -13q21 0 35.5 10.5t21.5 23.5t10.5 36.5t4 36t0.5 36.5v10l2 631h287v-659q0 -187 -91.5 -291t-277.5 -104q-68 0 -122.5 14.5t-91 38t-63.5 59.5t-41.5 71.5t-22.5 82.5t-10.5 84t-2.5 84z M231 1249l197 295l209 -94l-264 -283z" />
<glyph unicode="&#xfb;" horiz-adv-x="866" d="M72 414v620h288v-567q0 -7 -1 -35t-1 -47t3.5 -47t10.5 -45t23 -30t39 -13q21 0 35.5 10.5t21.5 23.5t10.5 36.5t4 36t0.5 36.5v10l2 631h287v-659q0 -187 -91.5 -291t-277.5 -104q-68 0 -122.5 14.5t-91 38t-63.5 59.5t-41.5 71.5t-22.5 82.5t-10.5 84t-2.5 84z M139 1300l293 232l299 -248l-125 -127l-174 143l-180 -143z" />
<glyph unicode="&#xfc;" horiz-adv-x="866" d="M70 1350q0 65 44.5 110t110.5 45q63 0 106.5 -46t43.5 -109q0 -61 -45.5 -105.5t-108.5 -44.5q-62 0 -106.5 44.5t-44.5 105.5zM72 414v620h288v-567q0 -7 -1 -35t-1 -47t3.5 -47t10.5 -45t23 -30t39 -13q21 0 35.5 10.5t21.5 23.5t10.5 36.5t4 36t0.5 36.5v10l2 631h287 v-659q0 -187 -91.5 -291t-277.5 -104q-68 0 -122.5 14.5t-91 38t-63.5 59.5t-41.5 71.5t-22.5 82.5t-10.5 84t-2.5 84zM496 1350q0 65 44.5 110t110.5 45q63 0 106.5 -46t43.5 -109q0 -61 -45.5 -105.5t-108.5 -44.5q-62 0 -106.5 44.5t-44.5 105.5z" />
<glyph unicode="&#xfd;" horiz-adv-x="925" d="M31 1034h291l108 -418l35 -172h4l135 590h291l-444 -1544h-285l166 530zM260 1249l197 295l209 -94l-265 -283z" />
<glyph unicode="&#xfe;" horiz-adv-x="886" d="M72 -510v1958h288v-541h5q26 67 75.5 107.5t116.5 40.5q50 0 92 -21t70 -54t49.5 -80.5t33.5 -95t19.5 -102.5t10 -98t2.5 -86q0 -58 -6 -120.5t-24.5 -140t-48 -137t-81.5 -100t-119 -40.5q-125 0 -190 137h-5v-627h-288zM340 522q0 -24 1 -50.5t7 -70t16 -76t29.5 -57 t46.5 -24.5q105 0 105 278q0 32 -3.5 69.5t-12.5 89t-31.5 85t-55.5 33.5q-28 0 -48 -24.5t-30 -56t-16 -75.5t-7 -69.5t-1 -51.5z" />
<glyph unicode="&#xff;" horiz-adv-x="925" d="M31 1034h291l108 -418l35 -172h4l135 590h291l-444 -1544h-285l166 530zM98 1350q0 65 45 110t111 45q62 0 105.5 -45.5t43.5 -109.5q0 -62 -45 -106t-108 -44q-62 0 -107 44.5t-45 105.5zM524 1350q0 65 45 110t111 45q62 0 105.5 -45.5t43.5 -109.5q0 -62 -45 -106 t-108 -44q-62 0 -107 44.5t-45 105.5z" />
<glyph unicode="&#x152;" horiz-adv-x="1525" d="M53 760q0 75 6 148t21.5 155t40 153t64 137t91 113t124 75t159.5 28q75 0 142 -28.5t108 -82.5h4v86h633v-287h-330v-323h295v-287h-295v-360h332v-287h-635v117h-4q-45 -67 -115 -104.5t-153 -37.5t-152.5 27.5t-119 73t-88 110t-62 134t-39 148.5t-21.5 149.5t-6 142.5 zM379 774q0 -37 1.5 -73.5t6.5 -91t14 -101t26 -95.5t39.5 -84t57 -57t76.5 -22q211 0 211 524q0 33 -0.5 55.5t-2.5 66.5t-5.5 76t-11 76t-17.5 76t-26.5 66t-36.5 55.5t-48.5 35t-62.5 13.5q-43 0 -77.5 -22t-57 -56t-39.5 -83t-25.5 -94.5t-13.5 -100t-6.5 -90.5 t-1.5 -74z" />
<glyph unicode="&#x153;" horiz-adv-x="1337" d="M53 516q0 101 20.5 193t62.5 171.5t116 127t172 47.5q163 0 252 -103q57 55 113 79t145 24q153 0 257 -132t93 -364l-6 -119h-457q3 -111 15 -154q25 -85 94 -85q92 0 92 118h246q-20 -155 -99.5 -247t-228.5 -92q-176 0 -285 112q-81 -112 -231 -112q-98 0 -172 47 t-116 126t-62.5 170.5t-20.5 192.5zM342 516q0 -27 1 -53t7 -71t16 -77.5t31 -57t49 -24.5q33 0 55 35.5t31 90.5t12 92.5t3 70.5q0 34 -2.5 69.5t-11.5 89t-31.5 87t-55.5 33.5q-28 0 -49 -25t-31 -57.5t-16 -77.5t-7 -71.5t-1 -53.5zM823 618h211v25q0 31 -4 59.5 t-14 60.5t-32 51.5t-54 19.5q-31 0 -53.5 -19t-33.5 -49.5t-15.5 -59t-4.5 -57.5v-31z" />
<glyph unicode="&#x178;" horiz-adv-x="1052" d="M8 1544h336l160 -420l22 -75h4l35 114l137 381h342l-360 -805v-739h-305v739zM162 1860q0 65 44.5 110t110.5 45q63 0 106.5 -46t43.5 -109q0 -61 -45.5 -105.5t-108.5 -44.5q-62 0 -106.5 44.5t-44.5 105.5zM588 1860q0 65 44.5 110t110.5 45q63 0 106.5 -46t43.5 -109 q0 -61 -45.5 -105.5t-108.5 -44.5q-62 0 -106.5 44.5t-44.5 105.5z" />
<glyph unicode="&#x2c6;" horiz-adv-x="614" d="M12 1300l293 232l299 -248l-125 -127l-174 143l-180 -143z" />
<glyph unicode="&#x2dc;" horiz-adv-x="614" d="M-25 1239q4 44 9.5 76.5t19 72t33 64t53.5 42t78 17.5q46 0 91.5 -19.5t84.5 -38.5t70 -19q66 0 73 82l154 -11q-8 -46 -14.5 -76.5t-22 -71.5t-35.5 -65t-54.5 -41.5t-78.5 -17.5q-60 0 -160 45q-6 2 -20.5 8.5t-22 9.5t-19.5 6t-24 3q-54 0 -65 -66h-150z" />
<glyph unicode="&#x2000;" horiz-adv-x="1039" />
<glyph unicode="&#x2001;" horiz-adv-x="2079" />
<glyph unicode="&#x2002;" horiz-adv-x="1039" />
<glyph unicode="&#x2003;" horiz-adv-x="2079" />
<glyph unicode="&#x2004;" horiz-adv-x="693" />
<glyph unicode="&#x2005;" horiz-adv-x="519" />
<glyph unicode="&#x2006;" horiz-adv-x="346" />
<glyph unicode="&#x2007;" horiz-adv-x="346" />
<glyph unicode="&#x2008;" horiz-adv-x="259" />
<glyph unicode="&#x2009;" horiz-adv-x="415" />
<glyph unicode="&#x200a;" horiz-adv-x="115" />
<glyph unicode="&#x2010;" horiz-adv-x="651" d="M70 541v272h512v-272h-512z" />
<glyph unicode="&#x2011;" horiz-adv-x="651" d="M70 541v272h512v-272h-512z" />
<glyph unicode="&#x2012;" horiz-adv-x="651" d="M70 541v272h512v-272h-512z" />
<glyph unicode="&#x2013;" horiz-adv-x="1024" d="M0 541v272h1024v-272h-1024z" />
<glyph unicode="&#x2014;" horiz-adv-x="2048" d="M0 541v272h2048v-272h-2048z" />
<glyph unicode="&#x2018;" horiz-adv-x="618" d="M53 918l307 626h205l-205 -626h-307z" />
<glyph unicode="&#x2019;" horiz-adv-x="618" d="M53 918l205 626h307l-307 -626h-205z" />
<glyph unicode="&#x201a;" horiz-adv-x="620" d="M53 -295l205 627h309l-309 -627h-205z" />
<glyph unicode="&#x201c;" horiz-adv-x="1005" d="M53 918l307 626h205l-205 -626h-307zM440 918l308 626h204l-204 -626h-308z" />
<glyph unicode="&#x201d;" horiz-adv-x="1005" d="M53 918l205 626h307l-307 -626h-205zM440 918l205 626h307l-307 -626h-205z" />
<glyph unicode="&#x201e;" horiz-adv-x="1005" d="M53 -295l205 627h307l-307 -627h-205zM440 -295l205 627h307l-307 -627h-205z" />
<glyph unicode="&#x2022;" horiz-adv-x="860" d="M43 762q0 159 112 271t273 112q160 0 273.5 -112.5t113.5 -270.5q0 -161 -113.5 -275t-273.5 -114q-161 0 -273 113.5t-112 275.5z" />
<glyph unicode="&#x2026;" horiz-adv-x="2048" d="M147 170q0 80 57 137.5t138 57.5t138 -57.5t57 -137.5t-57 -137.5t-138 -57.5t-138 57.5t-57 137.5zM829 170q0 80 57 137.5t138 57.5t138 -57.5t57 -137.5t-57 -137.5t-138 -57.5t-138 57.5t-57 137.5zM1511 170q0 80 57 137.5t138 57.5t138 -57.5t57 -137.5t-57 -137.5 t-138 -57.5t-138 57.5t-57 137.5z" />
<glyph unicode="&#x202f;" horiz-adv-x="415" />
<glyph unicode="&#x2039;" horiz-adv-x="532" d="M53 680l266 475l158 -88l-211 -387l211 -399l-158 -80z" />
<glyph unicode="&#x203a;" horiz-adv-x="532" d="M55 281l211 399l-211 387l158 88l266 -475l-266 -479z" />
<glyph unicode="&#x205f;" horiz-adv-x="519" />
<glyph unicode="&#x2122;" horiz-adv-x="1638" d="M2 1384v160h633v-160h-236v-667h-163v667h-234zM723 717v827h264l166 -489h4l164 489h264v-827h-164v667h-4l-215 -667h-96l-215 667h-4v-667h-164z" />
<glyph unicode="&#x25fc;" horiz-adv-x="1034" d="M0 0v1034h1034v-1034h-1034z" />
<glyph unicode="&#xfb01;" horiz-adv-x="1095" d="M39 797v237h106v291q0 64 6 111.5t24.5 94.5t50.5 76.5t86.5 47.5t129.5 18q55 0 125 -24v-279q-29 16 -51 16q-15 0 -27 -3.5t-20.5 -11t-14.5 -14.5t-10 -20.5t-6 -21.5t-3 -25t-1 -24v-25v-22v-185h133v-237h-133v-797h-289v797h-106zM659 1343q0 77 55 130t134 53 q74 0 126 -56t52 -131q0 -74 -54.5 -128t-129.5 -54t-129 55t-54 131zM698 0v1034h289v-1034h-289z" />
<glyph unicode="&#xfb02;" horiz-adv-x="1095" d="M39 797v237h106v291q0 64 6 111.5t24.5 94.5t50.5 76.5t86.5 47.5t129.5 18q55 0 125 -24v-279q-29 16 -51 16q-15 0 -27 -3.5t-20.5 -11t-14.5 -14.5t-10 -20.5t-6 -21.5t-3 -25t-1 -24v-25v-22v-185h133v-237h-133v-797h-289v797h-106zM698 0v1653h289v-1653h-289z" />
</font>
</defs>
</svg>
