<?xml version="1.0" standalone="no"?>
<!DOCTYPE svg PUBLIC "-//W3C//DTD SVG 1.1//EN" "http://www.w3.org/Graphics/SVG/1.1/DTD/svg11.dtd" >
<svg xmlns="http://www.w3.org/2000/svg">
<metadata></metadata>
<defs>
<font id="pablocoregular" horiz-adv-x="805" >
<font-face units-per-em="2048" ascent="1638" descent="-410" />
<missing-glyph horiz-adv-x="682" />
<glyph horiz-adv-x="0" />
<glyph unicode="&#xd;" horiz-adv-x="682" />
<glyph unicode=" "  horiz-adv-x="682" />
<glyph unicode="&#x09;" horiz-adv-x="682" />
<glyph unicode="&#xa0;" horiz-adv-x="682" />
<glyph unicode="!" horiz-adv-x="182" d="M41 0v105h105v-105h-105zM41 230v1135h105v-1135h-105z" />
<glyph unicode="&#x22;" horiz-adv-x="387" d="M41 1130v235h105v-235h-105zM246 1130v235h105v-235h-105z" />
<glyph unicode="#" horiz-adv-x="596" d="M41 910v103h105v123h-105v115h105v114h102v-114v114v-114h105v114h102v-114h105v-115h-105v-123h105v-103h-105v-123h-102v123h-103v-123h-104v123h-105zM248 1025h105v115h-105v-115z" />
<glyph unicode="$" horiz-adv-x="740" d="M41 467h88q0 -78 51.5 -153.5t124.5 -104.5v461q-115 14 -189.5 95.5t-74.5 193.5q0 103 82 187q76 80 185 107l-3 112h105v-108q113 -21 190 -110t77 -212h-85q-2 74 -55 150.5t-127 103.5v-463q129 -14 207 -84q86 -74 86 -195q0 -135 -81 -229.5t-212 -108.5v-109 h-100v119q-117 37 -193 133q-84 100 -76 215zM115 955q0 -86 59 -145q53 -54 131 -60v429q-191 -35 -190 -224zM410 197q94 10 155.5 81t57.5 165q-4 90 -61.5 150.5t-149.5 74.5z" />
<glyph unicode="%" horiz-adv-x="1051" d="M41 0l871 1287h-449q90 -86 91 -182q0 -107 -78 -179.5t-185 -72.5t-178.5 72.5t-71.5 179.5t73 183.5t177 76.5h724v-78l-869 -1287h-105zM103 1105q0 -78 55 -133.5t133 -55.5t132.5 55.5t54.5 133.5t-54.5 132.5t-132.5 54.5t-133 -54.5t-55 -132.5zM502 252 q0 105 73 181.5t177 79.5q109 2 187 -76t76 -185q0 -107 -78 -180.5t-185 -71.5q-103 2 -175.5 75t-74.5 177zM566 252q-2 -78 53 -133t133 -55q78 2 133.5 56t55.5 132q-2 78 -56.5 132.5t-132.5 54.5q-78 2 -132 -53.5t-54 -133.5z" />
<glyph unicode="&#x26;" horiz-adv-x="856" d="M41 404q0 223 205 305q-98 148 -182 271q2 182 88 283.5t242 101.5q125 0 231 -110q115 -119 113 -275q-2 -160 -70.5 -235t-220.5 -75q-39 0 -74 -6l279 -420q64 90 66 184h100q12 -158 -100 -280l98 -148h-101l-61 88q-115 -86 -254 -86q-168 0 -267 119 q-92 111 -92 283zM135 400q-4 -113 71 -196t190 -93q107 -13 199 67q-37 55 -304 462q-152 -72 -156 -240zM164 980l164 -248q55 10 115 10q84 0 146.5 73t62.5 165q0 119 -74.5 209t-187.5 90q-226 0 -226 -299z" />
<glyph unicode="'" horiz-adv-x="182" d="M41 1130v235h105v-235h-105z" />
<glyph unicode="(" horiz-adv-x="627" d="M41 677q0 299 180 539q193 252 468 252v-86q-238 0 -404 -226q-154 -211 -154 -473q0 -264 154 -476q166 -226 404 -225v-97q-289 57 -472 283q-176 219 -176 509z" />
<glyph unicode=")" horiz-adv-x="627" d="M-62 -115q291 57 472 283q176 219 176 509q0 299 -180 539q-193 252 -468 252l3 -86q236 0 401 -226q154 -211 154 -473q0 -264 -154 -476q-166 -226 -401 -225z" />
<glyph unicode="*" horiz-adv-x="590" d="M41 584v97h141l-100 98l68 68l100 -99v140h94v-140l101 99l68 -68l-101 -98h142v-97h-142l101 -100l-68 -68l-101 101v-142h-94v142l-100 -101l-68 68l100 100h-141z" />
<glyph unicode="+" horiz-adv-x="590" d="M41 584v97h209v207h94v-207h210v-97h-210v-209h-94v207z" />
<glyph unicode="," horiz-adv-x="385" d="M-10 -215l215 215v103h141l3 -101l-290 -287z" />
<glyph unicode="-" horiz-adv-x="590" d="M41 584v97h513v-97h-513z" />
<glyph unicode="." horiz-adv-x="219" d="M41 0v141h141v-141h-141z" />
<glyph unicode="/" horiz-adv-x="858" d="M41 0h105l676 1365h-92z" />
<glyph unicode="0" horiz-adv-x="1455" d="M41 677q0 285 202 486.5t487 201.5t487 -201.5t202 -486.5t-202 -487t-487 -202t-487 202t-202 487zM131 683q0 -248 175.5 -423.5t423.5 -175.5q246 0 421 175.5t175 423.5q0 246 -175 421t-421 175q-248 0 -423.5 -175t-175.5 -421z" />
<glyph unicode="1" horiz-adv-x="182" d="M41 0v1365h105v-1365h-105z" />
<glyph unicode="2" horiz-adv-x="858" d="M41 0h781v105h-676l580 920q0 139 -99.5 239.5t-241.5 100.5q-141 0 -241.5 -100.5t-100.5 -241.5h94q0 248 248 248q115 0 185 -72q64 -70 63 -176l-592 -918v-105z" />
<glyph unicode="3" horiz-adv-x="854" d="M41 390q0 -162 114 -276t276 -114q160 0 273.5 114t113.5 276q0 219 -217 323q166 107 166 300q0 146 -103.5 249t-251.5 103q-146 0 -249.5 -103.5t-103.5 -248.5q51 0 107 -2q0 103 72 173.5t172 70.5t172 -71t72 -173q0 -100 -73 -177.5t-173 -77.5q-2 -47 0 -100 q113 8 200 -74t87 -195q0 -111 -78 -188.5t-189 -77.5q-113 0 -190.5 78t-77.5 188q-49 2 -119 3z" />
<glyph unicode="4" horiz-adv-x="1098" d="M41 582h689v-582h92v584h240v101h-240v680h-92v-680h-584v680h-105v-783z" />
<glyph unicode="5" horiz-adv-x="904" d="M41 230q43 -103 162 -171q113 -66 236 -65q164 0 296 116t132 271q0 164 -134 307.5t-294 143.5q-166 0 -287 -100l2 529h676v104h-779h105h-105v-783h117q53 80 106.5 108t164.5 28q119 0 207 -95q94 -100 90 -242q-2 -111 -92 -191.5t-205 -80.5q-170 0 -265 121 q-82 4 -133 0z" />
<glyph unicode="6" horiz-adv-x="713" d="M-12 344q0 103 598 1021h91l-406 -676q25 4 49 4q139 0 248 -108t109 -241q0 -144 -100.5 -244t-244.5 -100t-244 100.5t-100 243.5zM92 340q0 -98 70 -167.5t168 -69.5t168 69.5t70 167.5t-70 168t-168 70t-168 -69.5t-70 -168.5z" />
<glyph unicode="7" horiz-adv-x="776" d="M41 0l740 1261h-740v104h845v-104l-749 -1261h-96z" />
<glyph unicode="8" horiz-adv-x="893" d="M41 408q0 226 189 346q-127 103 -127 267q0 144 100 244t244 100t244 -100.5t100 -243.5q0 -166 -123 -269q189 -121 189 -344q0 -168 -119 -288t-289 -120q-168 0 -288 120t-120 288zM164 404q0 -117 83 -200t200 -83t199 83t82 200t-82 199t-199 82t-200 -82t-83 -199z M207 1029q0 -100 71 -171t171 -71t171 71t71 171t-71 171t-171 71t-171 -70.5t-71 -171.5zM668 756z" />
<glyph unicode="9" horiz-adv-x="709" d="M41 0l406 677q-25 -4 -49 -5q-139 0 -248 108t-109 241q0 144 100.5 244t243.5 100q144 0 244.5 -100.5t100.5 -243.5q0 -103 -599 -1021h-90zM150 1025q0 -98 69.5 -168t167.5 -70t168 70t70 168t-69.5 168t-168.5 70q-98 0 -167.5 -70t-69.5 -168z" />
<glyph unicode=":" horiz-adv-x="241" d="M41 269q0 33 24.5 57.5t57.5 24.5q35 0 58.5 -25t23.5 -57q0 -35 -23.5 -59.5t-58.5 -24.5q-33 0 -57.5 24.5t-24.5 59.5zM41 767q0 35 24.5 58.5t57.5 23.5q35 0 58.5 -23.5t23.5 -58.5q0 -33 -23.5 -57.5t-58.5 -24.5q-33 0 -57.5 24.5t-24.5 57.5z" />
<glyph unicode=";" horiz-adv-x="385" d="M-10 -117l215 215v103h141l3 -103l-290 -285zM193 369q0 35 23.5 58.5t58.5 23.5t58.5 -23.5t23.5 -58.5t-23.5 -58.5t-58.5 -23.5t-58.5 23.5t-23.5 58.5z" />
<glyph unicode="&#x3c;" horiz-adv-x="858" d="M41 623l781 -617v82l-676 533l676 535v86z" />
<glyph unicode="=" horiz-adv-x="858" d="M41 437v100h781v-100h-781zM41 683v100h781v-100h-781z" />
<glyph unicode="&#x3e;" horiz-adv-x="858" d="M41 6v82l677 533l-677 535v86l781 -619z" />
<glyph unicode="?" horiz-adv-x="766" d="M41 1021q0 144 100.5 244t243.5 100q144 0 244.5 -100.5t100.5 -243.5q0 -144 -100.5 -244t-244.5 -100l-2 -451h-104v547h106q105 0 180 72.5t75 175.5t-75 176.5t-180 73.5q-103 0 -173.5 -73t-70.5 -177h-100zM279 0v103h104v-103h-104z" />
<glyph unicode="@" horiz-adv-x="1443" d="M207 681q-4 -2 12 -2h72q0 -180 115 -305.5t291 -125.5q166 0 281 86q23 33 0 64q-6 10 -19 10q-31 0 -86 -66v82q-57 -90 -176 -90q-82 0 -139.5 52.5t-57.5 126.5q0 72 57.5 124t139.5 52q119 0 176 -90v270q0 51 -56 90t-120 39q-117 0 -117 -131q-16 -45 -39 -80 q-51 -82 -117 -88q-123 -10 -207 135q55 141 177 242q137 113 303 119q215 6 374 -144.5t165 -367.5q2 -131 -117 -347l-35 103q68 109 68 240q0 176 -137.5 303t-317.5 127q-135 0 -236 -61q-107 -68 -127 -181q-8 -41 20.5 -74.5t71.5 -33.5q55 0 80 38q14 25 27 89 q31 158 164 157q84 0 157 -51t73 -121v-420q18 8 45 8q43 0 82 -31q31 -23 30 -57q0 -39 -30 -80q-141 -121 -357 -121q-209 0 -348 154q-137 148 -138 357h-4zM556 513q0 -51 41 -88.5t100 -37.5q57 0 98 37.5t41 88.5t-41 88t-98 37q-59 0 -100 -37t-41 -88z" />
<glyph unicode="A" horiz-adv-x="1443" d="M41 0l683 1365l682 -1365h-108l-289 584h-572l-291 -584h-105zM478 681h479l-233 500z" />
<glyph unicode="B" horiz-adv-x="549" d="M41 0v1365h105q144 0 244 -100t100 -244q0 -139 -88 -211t-236 -72q141 0 262 -126t121 -270q0 -137 -128 -239.5t-275 -102.5h-105zM146 107q105 0 201 71.5t96 165.5q0 98 -99.5 200t-197.5 102v-539zM146 804h11q89 0 155 58q70 62 71 161q0 98 -69.5 168t-167.5 70 v-457z" />
<glyph unicode="C" horiz-adv-x="1418" d="M41 677q0 -285 202 -487t487 -202q226 0 404 130t248 337h-150q-70 -129 -195 -221q-146 -109 -309 -113h-11q-229 0 -395 160q-170 164 -174 402v11q0 233 169 403q165 166 390 166h21q371 -12 506 -357q26 2 45.5 2t31.5 -2t29.5 -2t39.5 2q-72 203 -250.5 331 t-399.5 128q-285 0 -487 -202t-202 -486z" />
<glyph unicode="D" horiz-adv-x="861" d="M41 0h105q283 0 480.5 199t197.5 482t-201 483.5t-484 200.5h-98v-1365zM141 105v1154q240 0 406 -169t166 -409t-166 -408t-406 -168z" />
<glyph unicode="E" horiz-adv-x="1098" d="M41 0v1365h1021v-106h-916v-476h676v-98h-676v-578h916v-107h-1021z" />
<glyph unicode="F" horiz-adv-x="926" d="M41 0v1365h1021v-106h-916v-476h676v-98h-676v-685h-105z" />
<glyph unicode="G" horiz-adv-x="1459" d="M41 677q0 -285 201 -487t486 -202q182 0 340 88t250 244q70 111 70 209q0 16 -3 66.5t-3 85.5h-693v-103h562l2 -123q-148 -355 -525 -355q-234 0 -397 172.5t-163 410.5t164 409t396 171q182 0 325.5 -100.5t201.5 -256.5h125q-74 205 -253.5 332t-398.5 127 q-285 0 -486 -202t-201 -486z" />
<glyph unicode="H" horiz-adv-x="858" d="M41 0v1365h105v-684h584v684h92v-1365h-92v578h-584v-578h-105z" />
<glyph unicode="I" horiz-adv-x="182" d="M41 0v1365h105v-1365h-105z" />
<glyph unicode="J" horiz-adv-x="815" d="M41 367h72q0 -119 84 -200t203 -81t203 84t84 203v992h92v-998q0 -152 -107.5 -260.5t-261.5 -108.5t-261.5 108.5t-107.5 260.5z" />
<glyph unicode="K" horiz-adv-x="967" d="M41 0v1365h105v-656l676 656h109l-685 -684l681 -681h-105l-676 677v-677h-105z" />
<glyph unicode="L" horiz-adv-x="1102" d="M41 0v1365h105v-1262h920v-103h-1025z" />
<glyph unicode="M" horiz-adv-x="1574" d="M0 0h105v1234l664 -656l664 656v-1234h105v1365h-105l-664 -664l-664 664h-105v-1365z" />
<glyph unicode="N" horiz-adv-x="1445" d="M41 0v1365h105l1158 -1221v1221h104v-1365h-104l-1158 1222v-1222h-105zM1304 0z" />
<glyph unicode="O" horiz-adv-x="1455" d="M41 677q0 285 201 486.5t488 201.5q285 0 487 -201.5t202 -486.5t-202 -487t-487 -202q-287 0 -488 202t-201 487zM131 677q0 -248 174.5 -420.5t424.5 -172.5q248 0 422 172.5t174 420.5t-175 425t-421 177q-248 0 -423.5 -177t-175.5 -425z" />
<glyph unicode="P" horiz-adv-x="438" d="M41 0v1365h105q144 0 244 -100.5t100 -243.5q0 -139 -98.5 -221t-245.5 -82v-718h-105zM146 804h11q89 0 155 58q70 62 71 161q0 98 -69.5 168t-167.5 70v-457z" />
<glyph unicode="Q" horiz-adv-x="1455" d="M41 677q0 285 202 486.5t487 201.5t487 -201.5t202 -486.5q0 -254 -164 -447l151 -160l-69 -70l-150 160q-197 -172 -457 -172q-285 0 -487 202t-202 487zM131 683q0 -248 175.5 -423.5t423.5 -175.5q217 0 385 142q-16 14 -67 63l69 70q56 -63 68 -63q1 0 2 1 q139 167 139 386q0 246 -175 421t-421 175q-248 0 -423.5 -175t-175.5 -421zM1187 160zM1187 297z" />
<glyph unicode="R" horiz-adv-x="563" d="M41 0v1365h105q144 0 244 -100.5t100 -243.5q0 -139 -98.5 -221t-245.5 -82l381 -718h-105l-276 574v-574h-105zM146 804h11q89 0 155 58q70 62 71 161q0 98 -69.5 168t-167.5 70v-457z" />
<glyph unicode="S" horiz-adv-x="856" d="M41 428h103q2 -123 96 -223q88 -96 195 -96q15 0 30 2q115 12 190 94q71 78 71 184v11q-4 121 -90.5 195.5t-221.5 74.5q-156 0 -264.5 95.5t-108.5 241.5q0 150 109.5 254t263.5 104q158 0 266.5 -108.5t108.5 -276.5h-100q-2 109 -76 201q-82 100 -195 104h-11 q-112 0 -196 -80t-84 -190v-10q4 -107 105 -189q92 -74 186 -74q178 0 287 -84q115 -90 115 -254q0 -172 -92 -283q-99 -119 -267 -119q-174 0 -302 128q-119 119 -119 274q0 12 1 24z" />
<glyph unicode="T" horiz-adv-x="832" d="M-94 1259v106h1021v-106h-439v-1259h-84v1259h-498z" />
<glyph unicode="U" horiz-adv-x="1455" d="M41 677v688h105v-682q0 -250 168 -424.5t416 -174.5q244 0 410 174.5t166 424.5v682h113v-688q0 -285 -202 -487t-487 -202t-487 202t-202 487z" />
<glyph unicode="V" horiz-adv-x="1031" d="M-78 1365l595 -1365l592 1365h-104l-488 -1139l-490 1139h-105z" />
<glyph unicode="W" horiz-adv-x="1443" d="M-92 1365l594 -1365l222 517l219 -517l592 1365h-104l-488 -1139l-225 524l-216 -524l-490 1139h-104z" />
<glyph unicode="X" horiz-adv-x="1584" d="M41 1365h162l592 -600l591 600h162l-671 -684l669 -683h-162l-589 599l-588 -599h-162l668 683z" />
<glyph unicode="Y" horiz-adv-x="840" d="M-113 1365l513 -684v-681h90v681l463 684h-110l-398 -615l-453 615h-105z" />
<glyph unicode="Z" horiz-adv-x="1236" d="M41 0v105l1011 1156h-1011v104h1158v-119l-1012 -1141h1012v-105h-1158z" />
<glyph unicode="[" horiz-adv-x="590" d="M41 0v1365h513v-102h-408v-1160h408v-103h-513z" />
<glyph unicode="\" horiz-adv-x="858" d="M41 1365h92l689 -1365h-104z" />
<glyph unicode="]" horiz-adv-x="590" d="M41 0h513v1365h-513v-102h408v-1160h-408v-103z" />
<glyph unicode="^" d="M150 1074l227 234l234 -234l-70 -67l-160 159l-162 -159z" />
<glyph unicode="_" horiz-adv-x="858" d="M41 0v105h781v-105h-781z" />
<glyph unicode="`" d="M201 1492l287 -289l70 70l-287 289z" />
<glyph unicode="a" d="M41 340q0 141 99.5 241t240.5 100q197 0 296 -171v519q0 103 -73 176.5t-178 73.5q-103 0 -176.5 -73.5t-73.5 -178.5h-84q0 139 99.5 238.5t239.5 99.5q139 0 238.5 -97t99.5 -235v-1033h-92v170q-98 -170 -296 -170q-141 0 -240.5 99.5t-99.5 240.5zM135 342 q0 -98 71 -168.5t169 -70.5t169 70.5t71 168.5t-70.5 169t-169.5 71q-98 0 -169 -70.5t-71 -169.5z" />
<glyph unicode="b" d="M41 0h105v133q103 -141 278 -141q141 0 243 101.5t102 242.5q0 144 -101.5 244.5t-243.5 100.5q-176 0 -278 -142v826h-105v-1365zM185 338q0 100 70.5 170t168.5 70t169 -69.5t71 -170.5q0 -98 -70.5 -168t-169.5 -70q-98 0 -168.5 70t-70.5 168z" />
<glyph unicode="c" horiz-adv-x="748" d="M41 340q0 -144 100.5 -244t243.5 -100q113 0 202.5 64.5t123.5 169.5h-116q-68 -125 -210 -125q-100 0 -169.5 69.5t-69.5 167.5q0 100 69.5 170t169.5 70q146 0 212 -127q17 -1 45.5 -1t68.5 1q-37 100 -126 165t-200 65q-144 0 -244 -101.5t-100 -243.5z" />
<glyph unicode="d" d="M41 336q0 144 100.5 244.5t243.5 100.5q174 0 279 -142v826h105v-1365h-105v133q-105 -141 -279 -141q-144 0 -244 101.5t-100 242.5zM146 338q0 -98 69.5 -168t169.5 -70q98 0 168 70t70 168q0 100 -69.5 170t-168.5 70q-100 0 -169.5 -69.5t-69.5 -170.5z" />
<glyph unicode="e" horiz-adv-x="748" d="M41 340q0 141 100.5 243t243.5 102q152 0 240 -95q82 -90 84 -239h-582q0 -113 75 -189t183 -76q150 0 224 129h96q-37 -98 -124 -158.5t-196 -60.5q-144 0 -244 100.5t-100 243.5zM150 447h471q-80 154 -236 154t-235 -154z" />
<glyph unicode="f" horiz-adv-x="803" d="M41 582v103h162v338q0 141 99.5 241.5t240.5 100.5t242 -100.5t101 -241.5q-12 -1 -26 -1q-28 0 -65 3q0 103 -71.5 174.5t-174.5 71.5q-100 0 -172 -71.5t-72 -174.5v-340h224v-103h-224v-582h-102v582h-162z" />
<glyph unicode="g" horiz-adv-x="815" d="M41 -314h72q0 -119 84 -200t203 -81t203 84.5t84 202.5v493q-43 -84 -124 -134.5t-180 -50.5q-141 0 -241.5 100.5t-100.5 241.5t100.5 242t241.5 101q98 0 179.5 -50.5t124.5 -134.5v185h92v-999q0 -154 -107.5 -261.5t-261.5 -107.5t-261.5 108t-107.5 261zM133 330 q0 -105 74 -177.5t176 -72.5q105 0 177.5 72.5t72.5 177.5q0 103 -72.5 176.5t-177.5 73.5q-103 0 -176.5 -73.5t-73.5 -176.5z" />
<glyph unicode="h" horiz-adv-x="803" d="M41 0v1365h105v-824q99 140 266 140h14q137 -2 228.5 -105.5t91.5 -247.5v-328h-98v328q0 113 -63.5 188.5t-166.5 82.5q-12 1 -24 1q-96 0 -168 -74q-80 -83 -80 -198v-328h-105z" />
<glyph unicode="i" horiz-adv-x="182" d="M41 0v681h105v-681h-105zM41 750v105h105v-105h-105z" />
<glyph unicode="j" horiz-adv-x="383" d="M-394 -314h72q0 -119 84 -200t203 -81t204 84.5t85 202.5v993h90v-999q0 -154 -107.5 -261.5t-261.5 -107.5q-152 0 -260.5 108t-108.5 261zM258 750v105h88v-105h-88z" />
<glyph unicode="k" horiz-adv-x="524" d="M41 0v1365h105v-906l221 222h121l-342 -341l342 -340h-113l-225 230v-230h-109z" />
<glyph unicode="l" horiz-adv-x="207" d="M51 0v1365h105v-1365h-105z" />
<glyph unicode="m" horiz-adv-x="1492" d="M41 0v681h105v-127q88 127 272 127q244 0 332 -248q53 248 341 248q144 0 244 -100.5t100 -244.5v-336h-107v340q0 238 -237 238q-109 0 -191 -68.5t-96 -169.5v-340h-115v322q0 26 2 18q-14 103 -91 170.5t-182 67.5q-113 0 -192.5 -80t-79.5 -193v-305h-105z" />
<glyph unicode="n" horiz-adv-x="801" d="M41 0h105v326q0 109 83 180.5t195 71.5q107 0 166.5 -76t59.5 -190v-312h115v340q0 141 -99.5 241t-241.5 100q-176 0 -278 -144v144h-105v-681z" />
<glyph unicode="o" horiz-adv-x="766" d="M41 336q0 144 100.5 244.5t243.5 100.5q144 0 244.5 -100.5t100.5 -244.5q0 -141 -100.5 -242.5t-244.5 -101.5t-244 101.5t-100 242.5zM146 338q0 -98 69.5 -168t169.5 -70q98 0 168 70t70 168q0 100 -69.5 170t-168.5 70q-100 0 -169.5 -69.5t-69.5 -170.5z" />
<glyph unicode="p" horiz-adv-x="815" d="M41 681h105v-160q100 160 289 160q144 0 244 -100.5t100 -242.5q0 -144 -100.5 -244t-243.5 -100q-189 0 -289 160v-837h-105v1364zM197 342q0 -98 69.5 -167.5t168.5 -69.5q98 0 167.5 69.5t69.5 167.5t-69.5 168t-167.5 70t-168 -69.5t-70 -168.5z" />
<glyph unicode="q" horiz-adv-x="815" d="M41 338q0 -144 100.5 -244t241.5 -100q189 0 291 160v-837h105v1364h-105v-160q-103 160 -291 160q-141 0 -241.5 -100.5t-100.5 -242.5zM148 342q0 98 69.5 168t167.5 70t168 -69.5t70 -168.5q0 -98 -69.5 -167.5t-168.5 -69.5q-98 0 -167.5 69.5t-69.5 167.5z" />
<glyph unicode="r" horiz-adv-x="463" d="M41 0h105v488q0 47 32 81q31 32 73 32h5q43 -2 71 -34t28 -79q20 1 38 1t33 -1q0 80 -39 133q-47 59 -131 60q-62 0 -110 -39v39h-105v-681z" />
<glyph unicode="s" horiz-adv-x="498" d="M41 215h94q0 -55 34 -92t85 -37q47 0 82 34t35 79q0 51 -40 87t-103 36q-78 0 -132.5 52t-54.5 128q0 74 54.5 126.5t132.5 52.5q78 1 133 -55q53 -54 53 -134v-6h-82q0 49 -29.5 80t-72.5 31t-73 -28t-30 -69t30 -69.5t73 -28.5q88 0 159.5 -59.5t71.5 -141.5 t-61.5 -141.5t-147.5 -59.5q-88 0 -150 64q-61 62 -61 146v5z" />
<glyph unicode="t" horiz-adv-x="594" d="M41 562h154v-394q4 -74 60.5 -123t129.5 -49q72 0 124.5 50t52.5 122q-22 2 -42 2t-40 -2q0 -92 -95 -92q-90 0 -90 92v394h168v102h-168v115h-100v-115h-154v-102z" />
<glyph unicode="u" horiz-adv-x="766" d="M41 336v345h107v-345q0 -100 67.5 -171t167.5 -71t171 71t71 171v345h105v-681h-105v92q-96 -94 -240 -94t-244 98.5t-100 239.5zM625 92zM627 92z" />
<glyph unicode="v" d="M41 681h111l256 -544l260 544h101l-365 -697z" />
<glyph unicode="w" horiz-adv-x="1430" d="M41 681l363 -697l318 570l307 -570l365 697h-100l-261 -523q-291 533 -299 533l-4 -5t-8 -5l-314 -523l-256 523h-111z" />
<glyph unicode="x" horiz-adv-x="908" d="M41 0l359 340l-357 341h125l297 -285l273 281h133l-352 -337l352 -338h-133l-277 262l-274 -264h-146z" />
<glyph unicode="y" horiz-adv-x="815" d="M41 -314h72q0 -119 84 -200t203 -81t203 84.5t84 202.5v472q-86 -164 -304 -164q-141 0 -241.5 100.5t-100.5 241.5v339h92v-351q0 -103 73 -166.5t177 -63.5q109 0 205.5 75t96.5 176v334h94v-999q0 -154 -107.5 -261.5t-261.5 -107.5t-261.5 108t-107.5 261z" />
<glyph unicode="z" horiz-adv-x="725" d="M41 0h648v107h-482l482 475v99h-648v-99h494l-494 -475v-107z" />
<glyph unicode="{" horiz-adv-x="401" d="M41 291q0 105 49 203t129 150h-162v43h181q-197 117 -197 348q0 150 92 269q94 127 232 127v-43q-119 0 -199 -109.5t-80 -241.5q0 -131 78 -235q82 -115 201 -115v-31l-2 -12q-113 -10 -195 -118t-82 -231q0 -131 78 -238q82 -113 201 -112v-50q-146 31 -235 142 t-89 254z" />
<glyph unicode="|" horiz-adv-x="2089" d="M41 0v1365h105v-1365h-105z" />
<glyph unicode="}" horiz-adv-x="401" d="M41 -105q146 31 235 142t89 254q0 105 -48 203t-130 150h162v43h-181q197 117 197 348q0 150 -90 269q-96 127 -234 127v-43q119 0 199 -109.5t80 -241.5q0 -131 -78 -235q-82 -115 -201 -115q0 -16 2 -31v-12q113 -10 195 -118t82 -231q0 -131 -76 -238 q-84 -113 -201 -112z" />
<glyph unicode="~" horiz-adv-x="512" d="M49 566q0 47 33 81t82 34q47 0 80 -34t33 -81q0 -70 76 -70q33 0 55.5 20.5t22.5 51.5q18 2 36 2q0 -47 -32.5 -80t-81.5 -33q-47 0 -80 32t-33 79q0 31 -22.5 52.5t-55.5 21.5t-55.5 -22.5t-22.5 -53.5h-35z" />
<glyph unicode="&#xa1;" horiz-adv-x="182" d="M41 -123h105v1136h-105v-1136zM41 1138h105v104h-105v-104z" />
<glyph unicode="&#xa2;" horiz-adv-x="748" d="M41 925q0 125 80 222t199 120v98h104l2 -94q98 -10 174.5 -73.5t110.5 -158.5q-33 2 -114 0q-53 105 -171 121v-467q115 18 169 121h116q-31 -94 -107.5 -156.5t-177.5 -75.5l-2 -72h-104v76q-121 23 -200 118.5t-79 220.5zM146 929q0 -82 49 -145.5t125 -86.5v461 q-76 -23 -125 -86t-49 -143zM320 586z" />
<glyph unicode="&#xa3;" horiz-adv-x="940" d="M41 578v103h123v315q0 154 107.5 261.5t261.5 107.5t261.5 -107.5t107.5 -261.5h-72q0 119 -84 200t-203 81t-203 -84t-84 -203v-309h121v-103h-123v-475h650v-103h-740v578h-123z" />
<glyph unicode="&#xa4;" horiz-adv-x="2048" d="M0 695q0 72 50 122.5t122 50.5q70 0 121 -50.5t51 -122.5q0 -70 -51 -120t-121 -50q-72 0 -122 50.5t-50 119.5zM47 699q0 -51 37 -88t88 -37t87 37t36 88t-36 88.5t-87 37.5t-88 -37t-37 -89z" />
<glyph unicode="&#xa5;" horiz-adv-x="822" d="M-123 1365h105q451 -611 455 -611q4 6 4 7l391 604h111l-408 -604h287v-111h-342v-88h342v-103h-342v-459h-90v459h-390v103h390v88h-390v111h330z" />
<glyph unicode="&#xa6;" horiz-adv-x="182" d="M41 0v681h105v-681h-105zM41 761v604h105v-604h-105z" />
<glyph unicode="&#xa7;" horiz-adv-x="610" d="M41 687q0 144 139 217q-139 59 -139 203q0 100 74 169t176 69q107 0 177.5 -74t70.5 -182h-65q-2 74 -55.5 138.5t-125.5 64.5q-86 0 -140.5 -51.5t-54.5 -135.5q0 -105 121 -150q113 -37 226 -73q121 -59 121 -197q0 -66 -39 -130.5t-92 -91.5q139 -59 139 -203 q0 -100 -75 -168.5t-175 -68.5q-107 0 -177.5 73.5t-70.5 182.5h65q2 -74 54.5 -138.5t126.5 -64.5q82 0 137.5 53t55.5 133q0 66 -62.5 120.5t-130.5 54.5q-107 0 -191 71q-90 74 -90 179zM117 674q0 -55 66.5 -110.5t126.5 -55.5q76 0 132 54.5t56 130.5q0 55 -67.5 111.5 t-125.5 56.5q-76 0 -132 -55.5t-56 -131.5z" />
<glyph unicode="&#xa8;" horiz-adv-x="748" d="M180 1359q0 53 54 53q51 0 51 -53q0 -51 -51 -51q-53 0 -54 51zM498 1359q0 53 51 53q54 0 54 -53q0 -51 -54 -51q-51 0 -51 51z" />
<glyph unicode="&#xa9;" horiz-adv-x="766" d="M41 1017q0 141 100.5 242.5t243.5 101.5q144 0 244.5 -101.5t100.5 -242.5q0 -144 -100.5 -244.5t-244.5 -100.5t-244 100.5t-100 244.5zM146 1019q0 -98 69.5 -169t169.5 -71q98 0 168 71t70 169t-69.5 169t-168.5 71q-100 0 -169.5 -71t-69.5 -169zM246 1023 q0 -59 43 -102.5t103 -43.5q105 0 139 101h-33q-37 -70 -106 -72q-49 0 -85 35t-38 84q0 51 36.5 88t86.5 35q78 -2 106 -76h31q-33 96 -137 97q-59 0 -102.5 -42.5t-43.5 -103.5z" />
<glyph unicode="&#xaa;" horiz-adv-x="307" d="M41 1043q0 45 31 76t76 31q62 0 92 -53v164q0 31 -22.5 54.5t-55.5 23.5t-55.5 -23.5t-22.5 -56.5h-27q0 45 31 75.5t76 30.5q43 0 74 -30.5t31 -73.5v-324h-29v53q-31 -53 -92 -53q-45 0 -76 31.5t-31 74.5zM43 849v53h228v-53h-228zM70 1046q0 -31 22.5 -53.5 t53.5 -22.5t53 22.5t22 53.5t-22.5 52t-52.5 21q-31 0 -53.5 -21.5t-22.5 -51.5z" />
<glyph unicode="&#xab;" horiz-adv-x="781" d="M41 685l416 -330v43l-361 285l361 285v47zM328 683l416 -330v45l-361 285l361 285v45z" />
<glyph unicode="&#xac;" horiz-adv-x="1984" d="M41 584h584v-119h93v216h-677v-97z" />
<glyph unicode="&#xad;" horiz-adv-x="590" d="M41 584v97h513v-97h-513z" />
<glyph unicode="&#xae;" horiz-adv-x="766" d="M41 1009q0 144 100.5 244t243.5 100q144 0 244.5 -100t100.5 -244t-100.5 -244.5t-244.5 -100.5t-244 100.5t-100 244.5zM146 1011q0 -98 69.5 -168t169.5 -70q98 0 168 70t70 168q0 100 -69.5 170t-168.5 70q-100 0 -169.5 -70t-69.5 -170zM291 834v324h45 q62 0 106 -23.5t44 -58.5q0 -72 -150 -71l164 -171h-45l-119 138v-138h-45zM336 1025q10 -6 25 -6q27 0 52.5 19.5t25.5 37.5q0 25 -30 41.5t-73 16.5v-109z" />
<glyph unicode="&#xaf;" horiz-adv-x="590" d="M41 584v97h513v-97h-513z" />
<glyph unicode="&#xb0;" horiz-adv-x="2048" d="M0 1326q0 72 50 122.5t122 50.5q70 0 121 -50.5t51 -122.5q0 -70 -51 -120t-121 -50q-72 0 -122 50.5t-50 119.5zM47 1330q0 -51 37 -88t88 -37t87 37t36 88t-36 88.5t-87 37.5t-88 -37t-37 -89z" />
<glyph unicode="&#xb1;" horiz-adv-x="590" d="M41 584v97h209v207h94v-207h210v-97h-210v-209h-94v207zM43 230v102h506v-102h-506z" />
<glyph unicode="&#xb2;" horiz-adv-x="340" d="M41 908h262v35h-227l195 308q0 47 -34 80.5t-81 33.5t-81 -33.5t-34 -80.5h33q0 84 82 84t84 -84l-199 -308v-35z" />
<glyph unicode="&#xb3;" horiz-adv-x="319" d="M41 1062q0 -51 36 -87t85 -36q51 0 86 36t35 87q0 68 -68 100q51 33 52 93q0 47 -32 78.5t-79 31.5q-45 0 -77 -32.5t-32 -77.5h33q0 33 22.5 54t53.5 21q33 0 54.5 -21.5t21.5 -53.5q0 -31 -22.5 -54.5t-53.5 -23.5v-33q35 2 62.5 -23.5t27.5 -60.5q0 -33 -24.5 -57.5 t-59.5 -24.5t-59.5 24.5t-24.5 57.5z" />
<glyph unicode="&#xb4;" d="M201 1273l287 289l70 -70l-287 -289z" />
<glyph unicode="&#xb6;" horiz-adv-x="668" d="M41 1021q0 -139 98.5 -221t245.5 -82v-718h105v1365h-105q-144 0 -244 -100.5t-100 -243.5zM148 1023q0 98 69.5 168t169.5 70v-457q-98 -4 -168.5 58.5t-70.5 160.5zM527 0v1365h104v-1365h-104z" />
<glyph unicode="&#xb7;" horiz-adv-x="182" d="M41 576v105h105v-105h-105z" />
<glyph unicode="&#xb8;" horiz-adv-x="403" d="M41 -189l189 189l137 -2l-256 -256z" />
<glyph unicode="&#xb9;" horiz-adv-x="108" d="M41 976v389h31v-389h-31z" />
<glyph unicode="&#xba;" horiz-adv-x="315" d="M41 849v53h228v-53h-228zM47 1103q0 49 34 83t81 34q49 0 83 -34t34 -83q0 -47 -34 -81t-83 -34q-47 0 -81 34t-34 81zM82 1105q0 -33 23.5 -57.5t56.5 -24.5t56.5 24.5t23.5 57.5t-23.5 56.5t-56.5 23.5t-56.5 -23.5t-23.5 -56.5z" />
<glyph unicode="&#xbb;" horiz-adv-x="781" d="M41 353v45l361 285l-361 285v45l416 -330zM328 355v43l361 285l-361 285v47l416 -330z" />
<glyph unicode="&#xbc;" horiz-adv-x="723" d="M41 664v97h646v-97h-646zM223 168h216v-180h28v182h76v31h-76v213h-28v-213h-183v213h-33v-246zM344 959v392h29v-392h-29z" />
<glyph unicode="&#xbd;" horiz-adv-x="723" d="M41 664v97h646v-97h-646zM260 8h263v35h-228l195 308q0 47 -33 80.5t-80 33.5t-81 -33.5t-34 -80.5h31q0 82 84 82q23 0 45 -31q8 -12 27 -51q10 -18 10 0l-199 -308v-35zM349 959v392h28v-392h-28z" />
<glyph unicode="&#xbe;" horiz-adv-x="723" d="M41 664v97h646v-97h-646zM223 168h216v-180h28v182h76v31h-76v213h-28v-213h-183v213h-33v-246zM248 1054q0 -51 35 -86t86 -35q49 0 85 34.5t36 86.5q0 68 -68 100q51 33 52 94q0 45 -32 77t-79 32q-45 0 -78 -31.5t-31 -77.5h33q0 31 22.5 53.5t53.5 22.5t53.5 -22.5 t22.5 -53.5q0 -33 -22.5 -56t-55.5 -23v-31q37 2 63.5 -23.5t26.5 -60.5t-24.5 -59.5t-57.5 -24.5q-35 0 -59.5 24.5t-24.5 59.5h-37z" />
<glyph unicode="&#xbf;" horiz-adv-x="766" d="M41 242q0 144 100.5 244t243.5 100l2 451h105v-547h-107q-105 0 -179.5 -73t-74.5 -175q0 -103 76 -176.5t178 -73.5q103 0 173.5 72.5t70.5 177.5h101q0 -144 -100.5 -244.5t-244.5 -100.5t-244 100.5t-100 244.5zM387 1160v103h105v-103h-105z" />
<glyph unicode="&#xc0;" horiz-adv-x="1443" d="M41 0l683 1365l682 -1365h-108l-289 584h-572l-291 -584h-105zM478 681h479l-233 500zM570 1574l287 -289l70 70l-287 289z" />
<glyph unicode="&#xc1;" horiz-adv-x="1443" d="M41 0l683 1365l682 -1365h-108l-289 584h-572l-291 -584h-105zM478 681h479l-233 500zM496 1310l287 289l70 -70l-287 -289z" />
<glyph unicode="&#xc2;" horiz-adv-x="1443" d="M41 0l683 1365l682 -1365h-108l-289 584h-572l-291 -584h-105zM478 681h479l-233 500zM501 1341l227 234l234 -234l-70 -68l-160 160l-162 -160z" />
<glyph unicode="&#xc3;" horiz-adv-x="1443" d="M41 0l683 1365l682 -1365h-108l-289 584h-572l-291 -584h-105zM478 681h479l-233 500zM557 1392q0 47 33 81t82 34q47 0 80 -34t33 -81q0 -70 76 -70q33 0 55.5 20.5t22.5 51.5q18 2 36 2q0 -47 -32.5 -80t-81.5 -33q-47 0 -80 32t-33 79q0 31 -22.5 52.5t-55.5 21.5 t-55.5 -22.5t-22.5 -53.5h-35z" />
<glyph unicode="&#xc4;" horiz-adv-x="1443" d="M41 0l683 1365l682 -1365h-108l-289 584h-572l-291 -584h-105zM478 681h479l-233 500zM504 1388q0 53 54 53q51 0 51 -53q0 -51 -51 -51q-53 0 -54 51zM822 1388q0 53 51 53q54 0 54 -53q0 -51 -54 -51q-51 0 -51 51z" />
<glyph unicode="&#xc5;" horiz-adv-x="1443" d="M41 0l683 1365l682 -1365h-108l-289 584h-572l-291 -584h-105zM478 681h479l-233 500zM611 1490q0 45 31.5 76t74.5 31q45 0 76 -31t31 -76t-30.5 -75.5t-76.5 -30.5q-43 0 -74.5 30.5t-31.5 75.5zM656 1490q0 -62 61 -61q62 -1 62 61t-62 62t-61 -62z" />
<glyph unicode="&#xc6;" horiz-adv-x="1480" d="M41 0l683 1365h719v-102h-605v-582h281v-97h-281v-479h605v-105h-715v584h-291l-291 -584h-105zM478 681h252l-6 500z" />
<glyph unicode="&#xc7;" horiz-adv-x="1418" d="M41 677q0 285 202 486.5t487 201.5q221 0 399.5 -128t250.5 -331q-45 -4 -69 0t-77 0q-135 344 -506 357q-238 8 -411 -166t-169 -414q4 -238 174 -402t406 -160q164 4 309 113q125 92 195 221h150q-64 -193 -226 -320t-367 -145l-248 -248l-69 69l180 181 q-260 29 -435.5 224.5t-175.5 460.5z" />
<glyph unicode="&#xc8;" horiz-adv-x="1098" d="M41 0v1181h1019v-92h-914v-410h674v-87h-674v-500h914v-92h-1019zM363 1492l289 -289l68 70l-287 289z" />
<glyph unicode="&#xc9;" horiz-adv-x="1098" d="M41 0v1271h1011v-100h-906v-443h668v-90h-668v-540h906v-98h-1011zM355 1355l289 289l69 -70l-289 -289z" />
<glyph unicode="&#xca;" horiz-adv-x="1098" d="M41 0v1263h1011v-99h-906v-440h668v-91h-668v-535h906v-98h-1011zM334 1355l228 234l233 -234l-69 -70l-160 162l-162 -162z" />
<glyph unicode="&#xcb;" horiz-adv-x="1098" d="M41 0v1255h1011v-97h-906v-438h668v-91h-668v-531h906v-98h-1011zM381 1337q0 53 52 53q53 0 53 -53q0 -51 -53 -52q-51 0 -52 52zM697 1337q0 53 53 53q52 0 52 -53q0 -51 -52 -52q-53 0 -53 52z" />
<glyph unicode="&#xcc;" horiz-adv-x="436" d="M41 1484l289 -289l70 70l-289 289zM123 0v1263h103v-1263h-103z" />
<glyph unicode="&#xcd;" horiz-adv-x="315" d="M41 1287l289 289l70 -69l-289 -287zM174 0v1240h95v-1240h-95z" />
<glyph unicode="&#xce;" horiz-adv-x="539" d="M41 1265l228 234l233 -234l-69 -70l-160 162l-162 -162zM226 0v1240h104v-1240h-104z" />
<glyph unicode="&#xcf;" horiz-adv-x="500" d="M41 1337q0 53 53 53q52 0 52 -53q0 -51 -52 -52q-53 0 -53 52zM199 0v1292h102v-1292h-102zM357 1337q0 53 53 53t53 -53q0 -51 -53 -52q-53 0 -53 52z" />
<glyph unicode="&#xd0;" horiz-adv-x="1037" d="M41 584v97h178l-2 684h99q285 0 484.5 -200.5t199.5 -483.5t-196.5 -482t-479.5 -199h-107l2 584h-178zM320 105q238 0 404 168t166 408t-166 409t-404 169v-578h141v-97h-139z" />
<glyph unicode="&#xd1;" horiz-adv-x="1445" d="M41 0v1365h105l1158 -1221v1221h104v-1365h-104l-1158 1222v-1222h-105zM349 1376q0 86 60 145.5t145 59.5q84 0 143 -59.5t59 -145.5q0 -53 38 -88t96 -35q57 0 97 36.5t40 90.5l70 4q0 -84 -60.5 -142.5t-144.5 -58.5q-86 0 -144.5 55.5t-58.5 139.5q0 55 -40 93 t-98 38q-57 0 -97 -39t-40 -96q-10 2 -65 2zM1304 0z" />
<glyph unicode="&#xd2;" horiz-adv-x="1455" d="M41 656q0 -277 196 -472.5t472 -195.5q277 0 473 195.5t196 472.5t-196 471.5t-473 194.5t-472.5 -194.5t-195.5 -471.5zM129 656q0 240 170 412t410 172t410 -172t170 -412t-169 -408t-411 -168q-240 0 -410 168t-170 408zM547 1615l289 -287l70 70l-289 287z" />
<glyph unicode="&#xd3;" horiz-adv-x="1455" d="M41 656q0 277 195 471.5t471 194.5q277 0 474 -194.5t197 -471.5t-197 -472.5t-474 -195.5t-471.5 195.5t-194.5 472.5zM127 656q0 -240 170 -408t410 -168q242 0 411 168t169 408t-170 412t-410 172t-410 -172t-170 -412zM513 1398l289 287l67 -70l-287 -287z" />
<glyph unicode="&#xd4;" horiz-adv-x="1455" d="M41 648q0 273 192.5 466.5t467.5 193.5q273 0 466.5 -193.5t193.5 -466.5q0 -275 -193.5 -467.5t-466.5 -192.5q-275 0 -467.5 192.5t-192.5 467.5zM127 648q0 -238 168 -403t406 -165t405 165t167 403t-168 408t-404 170q-238 0 -406 -170t-168 -408zM498 1369l230 234 l231 -234l-69 -67l-160 160l-162 -160z" />
<glyph unicode="&#xd5;" horiz-adv-x="1455" d="M41 677q0 285 201 486.5t488 201.5q285 0 487 -201.5t202 -486.5t-202 -487t-487 -202q-287 0 -488 202t-201 487zM131 677q0 -248 174.5 -420.5t424.5 -172.5q248 0 422 172.5t174 420.5t-175 425t-421 177q-248 0 -423.5 -177t-175.5 -425zM494 1489q0 47 33 81t82 34 q47 0 80 -34t33 -81q0 -70 76 -70q33 0 55.5 20.5t22.5 51.5q18 2 36 2q0 -47 -32.5 -80t-81.5 -33q-47 0 -80 32t-33 79q0 31 -22.5 52.5t-55.5 21.5t-55.5 -22.5t-22.5 -53.5h-35z" />
<glyph unicode="&#xd6;" horiz-adv-x="1455" d="M41 677q0 285 201 486.5t488 201.5q285 0 487 -201.5t202 -486.5t-202 -487t-487 -202q-287 0 -488 202t-201 487zM131 677q0 -248 174.5 -420.5t424.5 -172.5q248 0 422 172.5t174 420.5t-175 425t-421 177q-248 0 -423.5 -177t-175.5 -425zM520 1441q0 53 54 53 q51 0 51 -53q0 -51 -51 -51q-53 0 -54 51zM838 1441q0 53 51 53q54 0 54 -53q0 -51 -54 -51q-51 0 -51 51z" />
<glyph unicode="&#xd7;" horiz-adv-x="510" d="M41 504l187 177l-187 176h66l155 -148l142 146h70l-185 -174l185 -177h-70l-144 138l-143 -138h-76z" />
<glyph unicode="&#xd8;" horiz-adv-x="1455" d="M41 677q0 285 202 486.5t487 201.5t487 -201.5t202 -486.5t-202 -487t-487 -202t-487 202t-202 487zM131 683q0 -219 140 -386l842 843q-166 139 -383 139q-248 0 -423.5 -175t-175.5 -421zM344 223q166 -139 386 -139q246 0 421 175.5t175 423.5q0 217 -139 383z" />
<glyph unicode="&#xd9;" horiz-adv-x="1455" d="M41 677v688h105v-682q0 -250 168 -424.5t416 -174.5q244 0 410 174.5t166 424.5v682h113v-688q0 -285 -202 -487t-487 -202t-487 202t-202 487zM615 1515l289 -289l70 70l-289 289z" />
<glyph unicode="&#xda;" horiz-adv-x="1455" d="M41 677v688h105v-682q0 -250 168 -424.5t416 -174.5q244 0 410 174.5t166 424.5v682h113v-688q0 -285 -202 -487t-487 -202t-487 202t-202 487zM617 1296l287 289l70 -70l-287 -289z" />
<glyph unicode="&#xdb;" horiz-adv-x="1455" d="M41 677v688h105v-682q0 -250 168 -424.5t416 -174.5q244 0 410 174.5t166 424.5v682h113v-688q0 -285 -202 -487t-487 -202t-487 202t-202 487zM519 1287l227 234l234 -234l-70 -68l-160 160l-162 -160z" />
<glyph unicode="&#xdc;" horiz-adv-x="1455" d="M41 677v688h105v-682q0 -250 168 -424.5t416 -174.5q244 0 410 174.5t166 424.5v682h113v-688q0 -285 -202 -487t-487 -202t-487 202t-202 487zM387 1378q0 37 25 61.5t62 24.5q35 0 59.5 -24.5t24.5 -61.5q0 -35 -25 -59.5t-59 -24.5q-37 0 -62 24.5t-25 59.5zM902 1378 q0 37 25.5 61.5t60.5 24.5t59.5 -24.5t24.5 -61.5q0 -35 -24.5 -59.5t-59.5 -24.5t-60.5 24.5t-25.5 59.5z" />
<glyph unicode="&#xdd;" horiz-adv-x="822" d="M-113 1365l513 -684v-681h90v681l463 684h-110l-398 -615l-453 615h-105zM289 1302l287 289l70 -70l-287 -289z" />
<glyph unicode="&#xde;" horiz-adv-x="438" d="M41 0v1365h107l-2 -340q144 0 244 -100t100 -244q0 -139 -98.5 -221.5t-245.5 -82.5v-377h-105zM146 463q96 -4 166.5 59t70.5 161t-69.5 167.5t-167.5 69.5v-457zM148 1365z" />
<glyph unicode="&#xdf;" horiz-adv-x="668" d="M41 -279v1644h105q144 0 244 -100.5t100 -243.5q0 -139 -88 -211t-236 -72q174 0 303 -88q162 -109 162 -308q0 -207 -141 -326q-121 -98 -285 -98v107q119 0 209 69q111 88 111 250t-140 242q-103 59 -237 60v-925h-107zM146 804q96 -4 166.5 58.5t70.5 160.5t-69.5 168 t-167.5 70v-457z" />
<glyph unicode="&#xe0;" d="M41 340q0 141 99.5 241t240.5 100q197 0 296 -171v384q0 105 -73 177.5t-178 72.5q-103 0 -176.5 -74t-73.5 -178h-84q0 141 99.5 239.5t239.5 98.5q139 0 238.5 -97.5t99.5 -234.5v-898h-92v170q-98 -170 -296 -170q-141 0 -240.5 99.5t-99.5 240.5zM135 342 q0 -98 71 -168.5t169 -70.5t169 70.5t71 168.5t-70.5 169t-169.5 71q-98 0 -169 -70.5t-71 -169.5zM201 1492l287 -289l70 70l-287 289z" />
<glyph unicode="&#xe1;" d="M41 340q0 141 99.5 241t240.5 100q197 0 296 -171v384q0 105 -73 177.5t-178 72.5q-103 0 -176.5 -74t-73.5 -178h-84q0 141 99.5 239.5t239.5 98.5q139 0 238.5 -97.5t99.5 -234.5v-898h-92v170q-98 -170 -296 -170q-141 0 -240.5 99.5t-99.5 240.5zM135 342 q0 -98 71 -168.5t169 -70.5t169 70.5t71 168.5t-70.5 169t-169.5 71q-98 0 -169 -70.5t-71 -169.5zM201 1273l287 289l70 -70l-287 -289z" />
<glyph unicode="&#xe2;" d="M41 340q0 141 99.5 241t240.5 100q197 0 296 -171v384q0 105 -73 177.5t-178 72.5q-103 0 -176.5 -74t-73.5 -178h-84q0 141 99.5 239.5t239.5 98.5q139 0 238.5 -97.5t99.5 -234.5v-898h-92v170q-98 -170 -296 -170q-141 0 -240.5 99.5t-99.5 240.5zM135 342 q0 -98 71 -168.5t169 -70.5t169 70.5t71 168.5t-70.5 169t-169.5 71q-98 0 -169 -70.5t-71 -169.5zM201 1273l227 232l232 -232l-70 -70l-159 162l-160 -162z" />
<glyph unicode="&#xe3;" d="M41 340q0 141 99.5 241t240.5 100q197 0 296 -171v384q0 105 -73 177.5t-178 72.5q-103 0 -176.5 -74t-73.5 -178h-84q0 141 99.5 239.5t239.5 98.5q139 0 238.5 -97.5t99.5 -234.5v-898h-92v170q-98 -170 -296 -170q-141 0 -240.5 99.5t-99.5 240.5zM135 342 q0 -98 71 -168.5t169 -70.5t169 70.5t71 168.5t-70.5 169t-169.5 71q-98 0 -169 -70.5t-71 -169.5zM203 1347q0 47 34 81t81 34t81 -34t34 -81q0 -70 73 -70q33 0 55.5 20.5t22.5 51.5q19 2 39 2q0 -47 -33.5 -80t-81.5 -33q-49 0 -81.5 32t-32.5 79q0 31 -22.5 52.5 t-55.5 21.5q-31 0 -54.5 -22.5t-23.5 -53.5h-35z" />
<glyph unicode="&#xe4;" d="M41 340q0 141 99.5 241t240.5 100q197 0 296 -171v384q0 105 -73 177.5t-178 72.5q-103 0 -176.5 -74t-73.5 -178h-84q0 141 99.5 239.5t239.5 98.5q139 0 238.5 -97.5t99.5 -234.5v-898h-92v170q-98 -170 -296 -170q-141 0 -240.5 99.5t-99.5 240.5zM135 342 q0 -98 71 -168.5t169 -70.5t169 70.5t71 168.5t-70.5 169t-169.5 71q-98 0 -169 -70.5t-71 -169.5zM205 1312q0 53 53 53q52 0 52 -53q0 -51 -52 -51q-53 0 -53 51zM523 1312q0 53 51 53q53 0 53 -53q0 -51 -53 -51q-51 0 -51 51z" />
<glyph unicode="&#xe5;" d="M41 340q0 141 99.5 241t240.5 100q197 0 296 -171v384q0 105 -73 177.5t-178 72.5q-103 0 -176.5 -74t-73.5 -178h-84q0 141 99.5 239.5t239.5 98.5q139 0 238.5 -97.5t99.5 -234.5v-898h-92v170q-98 -170 -296 -170q-141 0 -240.5 99.5t-99.5 240.5zM135 342 q0 -98 71 -168.5t169 -70.5t169 70.5t71 168.5t-70.5 169t-169.5 71q-98 0 -169 -70.5t-71 -169.5zM320 1365q0 45 31.5 76t74.5 31q45 0 76 -31t31 -76t-30.5 -75.5t-76.5 -30.5q-43 0 -74.5 30.5t-31.5 75.5zM365 1365q0 -62 61 -61q62 -1 62 61t-62 62t-61 -62z" />
<glyph unicode="&#xe6;" horiz-adv-x="1410" d="M41 340q0 141 99.5 241t240.5 100q197 0 296 -171v519q0 103 -73 176.5t-178 73.5q-103 0 -176.5 -73.5t-73.5 -178.5h-84q0 139 99.5 238.5t239.5 99.5q139 0 238.5 -97t99.5 -235v-496q103 148 279 148q111 0 200 -64.5t123 -165.5v-113h-563q0 -98 69.5 -167.5 t168.5 -69.5q144 0 211 125h117q-35 -105 -124.5 -169.5t-201.5 -64.5q-174 0 -279 145v-141h-92v170q-98 -170 -296 -170q-141 0 -240.5 99.5t-99.5 240.5zM135 342q0 -98 71 -168.5t169 -70.5t169 70.5t71 168.5t-70.5 169t-169.5 71q-98 0 -169 -70.5t-71 -169.5z M808 342zM834 455h423q-66 127 -211 127q-144 0 -212 -127zM1257 455zM1371 455z" />
<glyph unicode="&#xe7;" horiz-adv-x="748" d="M41 340q0 141 100.5 243t243.5 102q111 0 200 -65t126 -165q-33 2 -114 0q-66 127 -212 127q-100 0 -169.5 -69.5t-69.5 -170.5q0 -98 69.5 -167.5t169.5 -69.5q141 0 210 125h116q-31 -92 -107.5 -156t-175.5 -76l-256 -256l-67 69l194 195q-113 29 -185.5 122 t-72.5 212zM299 6z" />
<glyph unicode="&#xe8;" horiz-adv-x="748" d="M41 340q0 141 100.5 243t243.5 102q111 0 200 -65t126 -165v-113h-565q0 -98 69.5 -167.5t169.5 -69.5q141 0 210 125h116q-35 -105 -124 -169.5t-202 -64.5q-144 0 -244 100.5t-100 243.5zM146 342zM174 455h423q-66 127 -212 127q-143 0 -211 -127zM201 1021l287 -289 l70 70l-287 287zM597 455zM711 455z" />
<glyph unicode="&#xe9;" horiz-adv-x="748" d="M41 340q0 141 100.5 243t243.5 102q111 0 200 -65t126 -165v-113h-565q0 -98 69.5 -167.5t169.5 -69.5q141 0 210 125h116q-35 -105 -124 -169.5t-202 -64.5q-144 0 -244 100.5t-100 243.5zM146 342zM174 455h423q-66 127 -212 127q-143 0 -211 -127zM201 802l287 287 l70 -68l-287 -289zM597 455zM711 455z" />
<glyph unicode="&#xea;" d="M41 340q0 141 100.5 243t243.5 102q111 0 200 -65t126 -165v-113h-565q0 -98 69.5 -167.5t169.5 -69.5q141 0 210 125h116q-35 -105 -124 -169.5t-202 -64.5q-144 0 -244 100.5t-100 243.5zM146 342zM150 779l227 234l234 -234l-70 -68l-160 160l-162 -160zM174 455h423 q-66 127 -212 127q-143 0 -211 -127zM597 455zM711 455z" />
<glyph unicode="&#xeb;" horiz-adv-x="748" d="M41 340q0 141 100.5 243t243.5 102q111 0 200 -65t126 -165v-113h-565q0 -98 69.5 -167.5t169.5 -69.5q141 0 210 125h116q-35 -105 -124 -169.5t-202 -64.5q-144 0 -244 100.5t-100 243.5zM146 342zM174 455h423q-66 127 -212 127q-143 0 -211 -127zM180 814q0 51 54 51 q51 0 51 -51q0 -53 -51 -53q-53 0 -54 53zM498 814q0 51 51 51q54 0 54 -51q0 -53 -54 -53q-51 0 -51 53zM597 455zM711 455z" />
<glyph unicode="&#xec;" horiz-adv-x="455" d="M59 1021l287 -289l70 70l-289 287zM201 0v681h107v-681h-107z" />
<glyph unicode="&#xed;" horiz-adv-x="455" d="M59 802l287 287l70 -68l-289 -289zM201 0v681h107v-681h-107z" />
<glyph unicode="&#xee;" horiz-adv-x="455" d="M23 765l227 233l234 -233l-70 -70l-160 162l-162 -162zM201 0v681h107v-681h-107z" />
<glyph unicode="&#xef;" horiz-adv-x="455" d="M49 828q0 51 51 51q54 0 54 -51q0 -53 -54 -53q-51 0 -51 53zM201 0v681h107v-681h-107zM365 828q0 51 53 51q51 0 51 -51q0 -53 -51 -53q-53 0 -53 53z" />
<glyph unicode="&#xf0;" d="M41 342q0 141 100.5 242t241.5 101q178 0 281 -148v533h-151v96h151v199h113l-2 -199h123v-96h-117l-2 -1070h-115v146q-103 -146 -281 -146q-141 0 -241.5 100.5t-100.5 241.5zM123 332q0 -103 74 -175.5t176 -72.5q105 0 177.5 73t72.5 175q0 105 -72.5 177.5 t-177.5 72.5q-103 0 -176.5 -72.5t-73.5 -177.5z" />
<glyph unicode="&#xf1;" horiz-adv-x="801" d="M41 0h105v326q0 109 83 180.5t195 71.5q111 0 189 -78t78 -188v-312h74v340q0 141 -99.5 241t-241.5 100q-176 0 -278 -144v144h-105v-681zM217 869q0 49 34 82t81 33t81 -33t34 -82q0 -68 74 -67q33 0 55.5 20.5t22.5 50.5h39q0 -47 -34 -79.5t-81 -32.5q-49 0 -82 31.5 t-33 78.5q0 31 -22.5 52.5t-55.5 21.5q-31 0 -53.5 -22.5t-22.5 -53.5h-37z" />
<glyph unicode="&#xf2;" horiz-adv-x="766" d="M41 336q0 144 100.5 244.5t243.5 100.5q144 0 244.5 -100.5t100.5 -244.5q0 -141 -100.5 -242.5t-244.5 -101.5t-244 101.5t-100 242.5zM146 338q0 -98 69.5 -168t169.5 -70q98 0 168 70t70 168q0 100 -69.5 170t-168.5 70q-100 0 -169.5 -69.5t-69.5 -170.5zM201 1041 l287 -287l70 70l-287 287z" />
<glyph unicode="&#xf3;" horiz-adv-x="766" d="M41 336q0 144 100.5 244.5t243.5 100.5q144 0 244.5 -100.5t100.5 -244.5q0 -141 -100.5 -242.5t-244.5 -101.5t-244 101.5t-100 242.5zM146 338q0 -98 69.5 -168t169.5 -70q98 0 168 70t70 168q0 100 -69.5 170t-168.5 70q-100 0 -169.5 -69.5t-69.5 -170.5zM201 824 l287 287l70 -70l-287 -287z" />
<glyph unicode="&#xf4;" horiz-adv-x="766" d="M41 336q0 144 100.5 244.5t243.5 100.5q144 0 244.5 -100.5t100.5 -244.5q0 -141 -100.5 -242.5t-244.5 -101.5t-244 101.5t-100 242.5zM146 338q0 -98 69.5 -168t169.5 -70q98 0 168 70t70 168q0 100 -69.5 170t-168.5 70q-100 0 -169.5 -69.5t-69.5 -170.5zM150 779 l227 234l234 -234l-70 -68l-160 160l-162 -160z" />
<glyph unicode="&#xf5;" horiz-adv-x="766" d="M41 336q0 144 100.5 244.5t243.5 100.5q144 0 244.5 -100.5t100.5 -244.5q0 -141 -100.5 -242.5t-244.5 -101.5t-244 101.5t-100 242.5zM146 338q0 -98 69.5 -168t169.5 -70q98 0 168 70t70 168q0 100 -69.5 170t-168.5 70q-100 0 -169.5 -69.5t-69.5 -170.5zM193 830 q0 47 32.5 81t82.5 34q47 0 80.5 -34t33.5 -81q0 -70 74 -69q33 0 55.5 20.5t22.5 50.5q19 2 37 2q0 -47 -33 -79.5t-82 -32.5q-47 0 -80 31.5t-33 78.5q0 31 -22.5 52.5t-55.5 21.5t-55 -22.5t-22 -53.5h-35z" />
<glyph unicode="&#xf6;" horiz-adv-x="766" d="M41 336q0 144 100.5 244.5t243.5 100.5q144 0 244.5 -100.5t100.5 -244.5q0 -141 -100.5 -242.5t-244.5 -101.5t-244 101.5t-100 242.5zM146 338q0 -98 69.5 -168t169.5 -70q98 0 168 70t70 168q0 100 -69.5 170t-168.5 70q-100 0 -169.5 -69.5t-69.5 -170.5zM178 814 q0 51 54 51q51 0 51 -51q0 -53 -51 -53q-53 0 -54 53zM496 814q0 51 51 51q54 0 54 -51q0 -53 -54 -53q-51 0 -51 53z" />
<glyph unicode="&#xf7;" horiz-adv-x="590" d="M41 584v97h513v-97h-513zM221 385v141h141v-141h-141zM221 750v141h141v-141h-141z" />
<glyph unicode="&#xf8;" horiz-adv-x="766" d="M41 336q0 144 100.5 244.5t243.5 100.5q178 0 281 -146l2 -2q62 -88 62 -197q0 -141 -100.5 -242.5t-244.5 -101.5t-244 101.5t-100 242.5zM146 338q0 -80 49 -143l334 336q-64 47 -144 47q-100 0 -169.5 -69.5t-69.5 -170.5zM267 131q55 -31 118 -31q98 0 168 70t70 168 q0 66 -31 119z" />
<glyph unicode="&#xf9;" horiz-adv-x="766" d="M41 336v345h107v-345q0 -100 67.5 -171t167.5 -71t171 71t71 171v345h105v-681h-105v92q-96 -94 -240 -94t-244 98.5t-100 239.5zM201 1013l287 -289l70 69l-287 289zM625 92zM627 92z" />
<glyph unicode="&#xfa;" horiz-adv-x="766" d="M41 336v345h107v-345q0 -100 67.5 -171t167.5 -71t171 71t71 171v345h105v-681h-105v92q-96 -94 -240 -94t-244 98.5t-100 239.5zM201 853l287 289l70 -70l-287 -289zM625 92zM627 92z" />
<glyph unicode="&#xfb;" horiz-adv-x="766" d="M41 336v345h107v-345q0 -100 67.5 -171t167.5 -71t171 71t71 171v345h105v-681h-105v92q-96 -94 -240 -94t-244 98.5t-100 239.5zM150 779l227 234l234 -234l-70 -68l-160 160l-162 -160zM625 92zM627 92z" />
<glyph unicode="&#xfc;" horiz-adv-x="766" d="M41 336v345h107v-345q0 -100 67.5 -171t167.5 -71t171 71t71 171v345h105v-681h-105v92q-96 -94 -240 -94t-244 98.5t-100 239.5zM180 814q0 51 54 51q51 0 51 -51q0 -53 -51 -53q-53 0 -54 53zM498 814q0 51 51 51q54 0 54 -51q0 -53 -54 -53q-51 0 -51 53zM625 92z M627 92z" />
<glyph unicode="&#xfd;" d="M41 -314h72q0 -119 84 -200t203 -81t203 84.5t84 202.5v472q-86 -164 -304 -164q-141 0 -241.5 100.5t-100.5 241.5v339h92v-351q0 -103 73 -166.5t177 -63.5q109 0 205.5 75t96.5 176v334h94v-999q0 -154 -107.5 -261.5t-261.5 -107.5t-261.5 108t-107.5 261zM238 748 l287 289l70 -70l-287 -289z" />
<glyph unicode="&#xfe;" horiz-adv-x="438" d="M41 -365v1365h107l-2 -340q144 0 244 -100t100 -244q0 -139 -98.5 -221.5t-245.5 -82.5v-377h-105zM146 98q96 -4 166.5 59t70.5 161t-69.5 167.5t-167.5 69.5v-457zM148 1000z" />
<glyph unicode="&#xff;" horiz-adv-x="815" d="M41 -314h72q0 -119 84 -200t203 -81t203 84.5t84 202.5v472q-86 -164 -304 -164q-141 0 -241.5 100.5t-100.5 241.5v339h92v-351q0 -103 73 -166.5t177 -63.5q109 0 205.5 75t96.5 176v334h94v-999q0 -154 -107.5 -261.5t-261.5 -107.5t-261.5 108t-107.5 261zM180 769 q0 53 54 53q51 0 51 -53q0 -51 -51 -51q-53 0 -54 51zM498 769q0 53 51 53q54 0 54 -53q0 -51 -54 -51q-51 0 -51 51z" />
<glyph unicode="&#x152;" horiz-adv-x="2373" d="M41 677q0 285 202 486.5t487 201.5q182 0 340 -88q152 -88 244 -236v324h1023v-106h-918v-476h676v-98h-676v-578h918v-107h-1023v312q-92 -150 -244 -236q-158 -88 -340 -88q-285 0 -487 202t-202 487zM131 683q0 -248 175.5 -423.5t423.5 -175.5q213 0 378 135.5 t206 340.5v244q-41 205 -206 340t-378 135q-248 0 -423.5 -175t-175.5 -421z" />
<glyph unicode="&#x153;" horiz-adv-x="1334" d="M41 336q0 144 100.5 244.5t243.5 100.5q191 0 292 -160q103 164 295 164q111 0 199 -64.5t125 -165.5v-113h-564q0 -98 69.5 -167.5t168.5 -69.5q144 0 211 125h117q-35 -105 -125.5 -169.5t-200.5 -64.5q-190 0 -293 160q-100 -164 -294 -164q-144 0 -244 101.5 t-100 242.5zM146 338q0 -98 69.5 -168t169.5 -70q98 0 168 70t70 168q0 100 -69.5 170t-168.5 70q-100 0 -169.5 -69.5t-69.5 -170.5zM732 342zM759 455h422q-66 127 -211 127q-143 0 -211 -127zM1181 455zM1296 455z" />
<glyph unicode="&#x178;" horiz-adv-x="822" d="M-113 1365l513 -684v-681h90v681l463 684h-110l-398 -615l-453 615h-105zM201 1359q0 53 54 53q51 0 51 -53q0 -51 -51 -51q-53 0 -54 51zM519 1359q0 53 51 53q54 0 54 -53q0 -51 -54 -51q-51 0 -51 51z" />
<glyph unicode="&#x2c6;" d="M150 779l227 234l234 -234l-70 -68l-160 160l-162 -160z" />
<glyph unicode="&#x2dc;" horiz-adv-x="512" d="M49 566q0 47 33 81t82 34q47 0 80 -34t33 -81q0 -70 76 -70q33 0 55.5 20.5t22.5 51.5q18 2 36 2q0 -47 -32.5 -80t-81.5 -33q-47 0 -80 32t-33 79q0 31 -22.5 52.5t-55.5 21.5t-55.5 -22.5t-22.5 -53.5h-35z" />
<glyph unicode="&#x2000;" horiz-adv-x="842" />
<glyph unicode="&#x2001;" horiz-adv-x="1685" />
<glyph unicode="&#x2002;" horiz-adv-x="842" />
<glyph unicode="&#x2003;" horiz-adv-x="1685" />
<glyph unicode="&#x2004;" horiz-adv-x="561" />
<glyph unicode="&#x2005;" horiz-adv-x="421" />
<glyph unicode="&#x2006;" horiz-adv-x="280" />
<glyph unicode="&#x2007;" horiz-adv-x="280" />
<glyph unicode="&#x2008;" horiz-adv-x="210" />
<glyph unicode="&#x2009;" horiz-adv-x="337" />
<glyph unicode="&#x200a;" horiz-adv-x="93" />
<glyph unicode="&#x2010;" horiz-adv-x="590" d="M41 584v97h513v-97h-513z" />
<glyph unicode="&#x2011;" horiz-adv-x="590" d="M41 584v97h513v-97h-513z" />
<glyph unicode="&#x2012;" horiz-adv-x="590" d="M41 584v97h513v-97h-513z" />
<glyph unicode="&#x2013;" horiz-adv-x="590" d="M41 584v97h513v-97h-513z" />
<glyph unicode="&#x2014;" horiz-adv-x="815" d="M41 584v97h738v-97h-738z" />
<glyph unicode="&#x2018;" horiz-adv-x="436" d="M41 1382l289 -287l70 69l-215 216v104h-144v-102z" />
<glyph unicode="&#x2019;" horiz-adv-x="436" d="M41 1164l215 216v104h142l2 -102l-289 -287z" />
<glyph unicode="&#x201a;" horiz-adv-x="385" d="M-10 -215l215 215v103h141l3 -101l-290 -287z" />
<glyph unicode="&#x201c;" horiz-adv-x="678" d="M41 1367l289 -287l70 70l-215 215v103h-144v-101zM283 1367l289 -287l70 70l-216 215v103h-141z" />
<glyph unicode="&#x201d;" horiz-adv-x="678" d="M41 1150l215 215v103h142l2 -101l-289 -287zM283 1150l215 215v103h144v-101l-289 -287z" />
<glyph unicode="&#x201e;" horiz-adv-x="436" d="M41 -215l215 215v103h141l3 -101l-290 -287zM310 -215l215 215v103h141l3 -101l-290 -287z" />
<glyph unicode="&#x2022;" horiz-adv-x="766" d="M41 672q0 144 100.5 244.5t243.5 100.5q144 0 244.5 -100.5t100.5 -244.5t-100.5 -244t-244.5 -100t-244 100t-100 244z" />
<glyph unicode="&#x2026;" horiz-adv-x="291" d="M41 0v141h141v-141h-141zM262 -2v141h141v-141h-141zM484 -2v141h141v-141h-141z" />
<glyph unicode="&#x202f;" horiz-adv-x="337" />
<glyph unicode="&#x2039;" horiz-adv-x="467" d="M41 623l390 -307v41l-337 266l337 267v43z" />
<glyph unicode="&#x203a;" horiz-adv-x="467" d="M41 316v41l338 266l-338 267v43l390 -310z" />
<glyph unicode="&#x205f;" horiz-adv-x="421" />
<glyph unicode="&#x2122;" horiz-adv-x="854" d="M41 1335v30h299v-30h-129v-369h-24v369h-146zM371 970h31v356l193 -188l192 188v-356h31v395h-31l-192 -192l-193 192h-31v-395z" />
<glyph unicode="&#x25fc;" horiz-adv-x="676" d="M0 0v677h677v-677h-677z" />
</font>
</defs>
</svg>
